Welcome Guest ( Log In | Register )

> Imperial Triumphant - Alphaville (2020), Avant-Garde/Technical Black/Death Metal (D7)
post Jul 30 2020, 13:05:11
Post #1

Serial Uploader
Group Icon
Group: V.I.P
Posts: 37,532
Releases: 35706
From: Lithuania
On Forums: 12 years 10 months
Thanks: 431408 time(s)
Lithuania


(IMG:https://metalarea.org/images/audiocovers/2020_Jul/acov_tid340249_thumb.jpg)

*Artist: Imperial Triumphant
*Album: Alphaville
*Year: 2020
*Genre: Avant-Garde/Technical Black/Death Metal
*Country: United States (IMG:https://metalarea.org/forum/style_images/flags/United%20States.png)
*Format: mp3@CBR320kbps
*Size: 140MB

Tracklist:
01. Rotted Futures 05:59
02. Excelsior 05:52
03. City Swine 06:56
04. Atomic Age 08:43
05. Transmission to Mercury 08:10
06. Alphaville 06:41
07. The Greater Good 07:22
08. Experiment (Voivod cover) (Bonus Track) 04:48
09. Happy Home (The Residents cover) (Bonus Track) 04:48
******************************
Total playing time: 59:19


(IMG:https://metalarea.org/images/youtube.png)

Technical info
(IMG:https://metalarea.org/images/spectrogram/2020_Jul/db0a70ae5f9db1add4c4559c22e56e72.png)
Input File: 02. Excelsior.mp3
Channels : 2
Sample Rate : 44100
Precision : 16-bit
Duration : 00:05:52.31 = 15536871 samples = 26423.2 CDDA sectors
File Size : 14.2M
Bit Rate : 322k
Sample Encoding: MPEG audio (layer I, II or III)
Comments :
Title=Excelsior
Artist=Imperial Triumphant
Album=Alphaville (Limited Edition)
Tracknumber=2
Year=2020
Discnumber=1



Register


Go to the top of the page
  Insert nick Quick quote
+Quote Post
2 Pages V  < 1 2  
Start new topic
Replies (30 - 33)
post Oct 31 2020, 22:39:06
Post #31

Правь статус, ####!111
**************
Group: Металариец
Posts: 4,332
Releases: 17
From: Holland
On Forums: 14 years 9 months
Thanks: 1405 time(s)
Netherlands


Register


Go to the top of the page
  Insert nick Quick quote
+Quote Post
post Nov 11 2020, 04:29:44
Post #32

Два Литра
**
Group: Завсегдатай
Posts: 122
Releases: 0
On Forums: 5 months 1 week
Thanks: 70 time(s)
Somalia


Если кому интересно чем вдохновляются эти типы, гуглите фильм "Метрополис" 27 года. И стиль art deco.
Go to the top of the page
  Insert nick Quick quote
+Quote Post
post Nov 11 2020, 04:42:22
Post #33

Шесть Литров
******
Group: Металариец
Posts: 590
Releases: 0
On Forums: 13 years 11 months
Thanks: 430 time(s)
Russian Federation


Красивый альбом, до сих пор с удовольствием слушается. Наверное, один из лучших в этом году.


Thanks:
(1) Metalass,
Go to the top of the page
  Insert nick Quick quote
+Quote Post
post Apr 7 2021, 17:06:55
Post #34

Group: Дух
Posts: 4
Releases: 0
From: Москва
On Forums: 11 months 3 weeks
Thanks: 0 time(s)
Russian Federation


Опупенны...
Go to the top of the page
  Insert nick Quick quote
+Quote Post

2 Pages V  < 1 2
Reply to this topicStart new topic
2 User(s) are reading this topic (2 Guests and 0 Anonymous Users)
0 Members:

 



- Lo-Fi Version Support form
Copyrights and abuse reports form
Time is now: 19th April 2021 - 17:19:07