Welcome Guest ( Log In | Register )

> Releases Upload / Добавление релизов

Добавить релиз тут / Click here to add release
Рекомендованные обменники / Recommended file shares

> Catharist - Eternal Ekur (2020), Melodic Death Metal (D4)
post Jul 30 2020, 13:18:31
Post #1

Serial Uploader
Group Icon
Group: V.I.P
Posts: 37,277
Releases: 35458
From: Lithuania
On Forums: 12 years 1 month
Thanks: 422457 time(s)
Lithuania


(IMG:https://metalarea.org/images/audiocovers/2020_Jul/acov_tid340250_thumb.jpg)

*Artist: Catharist
*Album: Eternal Ekur
*Year: 2020
*Genre: Melodic Death Metal
*Country: United Kingdom (IMG:https://metalarea.org/forum/style_images/flags/United%20Kingdom.png)
*Format: mp3@CBR320kbps
*Size: 69MB

Tracklist:
01. Wisdom Magic Incantation
02. Epic of Anzu
03. Obsidian Night
04. Bestower of Kingship
05. The Gatekeeper
06. Tarzan Boy (Instrumental Version)
******************************
Total playing time: 30:01

(IMG:https://metalarea.org/images/myspace.png)



Technical info
(IMG:https://metalarea.org/images/spectrogram/2020_Jul/a1c123beb74e343770371698c3e0536a.png)
Input File: 02 - Epic of Anzu.mp3
Channels : 2
Sample Rate : 44100
Precision : 16-bit
Duration : 00:07:44.98 = 20505574 samples = 34873.4 CDDA sectors
File Size : 18.8M
Bit Rate : 323k
Sample Encoding: MPEG audio (layer I, II or III)
Comments :
Title=Epic of Anzu
Artist=Catharist
Album=Eternal Ekur
Tracknumber=2
Year=2020



Register


Go to the top of the page
  Insert nick Quick quote
+Quote Post
 
Start new topic
Replies (1 - 4)
post Jul 31 2020, 05:22:34
Post #2

Шесть Литров
******
Group: Металариец
Posts: 512
Releases: 7
From: Kimry, Tver Region
On Forums: 13 years 5 months
Thanks: 1315 time(s)
Russian Federation




Thanks:
Go to the top of the page
  Insert nick Quick quote
+Quote Post
post Jul 31 2020, 09:16:00
Post #3

hearer & reader
**************
Group: Металариец
Posts: 8,854
Releases: 145
From: Moscow
On Forums: 12 years 10 months
Thanks: 9090 time(s)
Russian Federation



утомительно
Go to the top of the page
  Insert nick Quick quote
+Quote Post
post Aug 1 2020, 10:53:36
Post #4

Правь статус, ####!111
**************
Group: Металариец
Posts: 3,095
Releases: 9
From: Dnipro
On Forums: 12 years 3 weeks
Thanks: 1045 time(s)
Ukraine


Прочитал название группы как Каратист (IMG:style_emoticons/default/15.gif)
Go to the top of the page
  Insert nick Quick quote
+Quote Post
post Aug 3 2020, 17:38:51
Post #5

MDM-Thrash Metal
**************
Group: Металариец
Posts: 9,691
Releases: 945
From: Одесса
On Forums: 12 years 11 months
Thanks: 24235 time(s)
Ukraine


ЦИТАТА(AHBAnep @ Jul 31 2020, 11:16:00) *
утомительно

(IMG:style_emoticons/default/dooo.gif) + слишком уж однообразно.
Go to the top of the page
  Insert nick Quick quote
+Quote Post

Reply to this topicStart new topic
2 User(s) are reading this topic (2 Guests and 0 Anonymous Users)
0 Members:

 



- Lo-Fi Version Support form
Copyrights and abuse reports form
Time is now: 5th August 2020 - 05:46:01