Welcome Guest ( Log In | Register )

> Releases Upload / Добавление релизов

Добавить релиз тут / Click here to add release
Рекомендованные обменники / Recommended file shares

> Immorium - This Too Shall Pass (2020), Melodic Death Metal
post Jul 30 2020, 13:26:23
Post #1

Правь статус, ####!111
**************
Group: Металариец
Posts: 22,665
Releases: 15760
From: Г.Харьков
On Forums: 8 years 3 months
Thanks: 290131 time(s)
Unknown


(IMG:https://metalarea.org/images/audiocovers/2020_Jul/acov_tid340251_thumb.jpg)

*Artist: Immorium
*Album: This Too Shall Pass
*Year: 2020
*Genre: Melodic Death Metal
*Country: Australia (IMG:https://metalarea.org/forum/style_images/flags/Australia.png)
*Format: mp3@CBR320kbps
*Size: 132MB

Tracklist:
1. Vale
2. Diamonds of the Fire
3. Echoes
4. Trainwreck
5. Demiurge
6. Only Cinders Remain
7. Pride
8. Across the Fade
9. This Too Shall Pass
10. Waves of Damnation
******************************
Total playing time: 56:47




Extended info
Nick McCauley Bass
See also: Claret Ash
Dan Norton Guitars
See also: Deprivation
Chris "Christo" Todd Vocals
See also: Psynonemous
Chris "Dutch" Vandermark Drums (2008-present)
See also: Deprivation, ex-Tortured, ex-Templestowe
Jared Williams Guitars (2008-present)
See also: ex-Claret Ash


Technical info
(IMG:https://metalarea.org/images/spectrogram/2020_Jul/0f8b280871229dab19df5e628d3af3d9.png)
Input File: 05 - Demiurge.mp3
Channels : 2
Sample Rate : 44100
Precision : 16-bit
Duration : 00:04:34.12 = 12088604 samples = 20558.9 CDDA sectors
File Size : 11.2M
Bit Rate : 326k
Sample Encoding: MPEG audio (layer I, II or III)
Comments :
Title=Demiurge
Artist=Immorium
Album=This Too Shall Pass
Tracknumber=5
Year=2020



Register


Go to the top of the page
  Insert nick Quick quote
+Quote Post
 
Start new topic
Replies (1 - 6)
post Aug 1 2020, 11:00:11
Post #2

Правь статус, ####!111
**************
Group: Металариец
Posts: 3,104
Releases: 9
From: Dnipro
On Forums: 12 years 4 weeks
Thanks: 1054 time(s)
Ukraine


Достойный альбом, мощный и без соплей.
Go to the top of the page
  Insert nick Quick quote
+Quote Post
post Aug 1 2020, 15:14:31
Post #3

Четыре Литра
****
Group: Металариец
Posts: 349
Releases: 0
From: Лыткарино
On Forums: 1 year 3 months
Thanks: 83 time(s)
Russian Federation


Отличная вещь с выразительными мелодиями, мощным звучанием, красивыми аранжировками. Почему-то напомнило местами Mors principium est 2005-го.
Go to the top of the page
  Insert nick Quick quote
+Quote Post
post Aug 2 2020, 05:36:21
Post #4

hearer & reader
**************
Group: Металариец
Posts: 8,868
Releases: 145
From: Moscow
On Forums: 12 years 11 months
Thanks: 9137 time(s)
Russian Federation


Register


Thanks:
Go to the top of the page
  Insert nick Quick quote
+Quote Post
post Aug 3 2020, 17:34:45
Post #5

MDM-Thrash Metal
**************
Group: Металариец
Posts: 9,706
Releases: 959
From: Одесса
On Forums: 13 years 9 hours
Thanks: 24460 time(s)
Ukraine


Однозначно один из лучших мелодезовых опусов этого года!
Без кора, грува и чистоголосья, отменный сабж, который слушается легко и приятно!
Go to the top of the page
  Insert nick Quick quote
+Quote Post
post Aug 3 2020, 17:54:56
Post #6

Три Литра
***
Group: Завсегдатай
Posts: 250
Releases: 4
From: СПб
On Forums: 12 years 1 month
Thanks: 63 time(s)
Russian Federation


ЦИТАТА(Andrew @ Aug 3 2020, 19:34:45) *
Однозначно один из лучших мелодезовых опусов этого года!
Без кора, грува и чистоголосья, отменный сабж, который слушается легко и приятно!


Серьёзное заявление. Однако,если отогнать от себя твердое ощущение,что эти ребята днём и ночью слушают своих соотечественников Be'lakor (что определенно сказывается на их подаче материала),то заявление получается вполне имеющим право на жизнь.Пожалуй,прокручу ещё пару раз в плеере,а там поглядим... (IMG:style_emoticons/default/hmm.gif)
Go to the top of the page
  Insert nick Quick quote
+Quote Post
post Aug 3 2020, 20:26:53
Post #7

Азъ есн Хаос
**********
Group: Металариец
Posts: 1,491
Releases: 164
From: Россия Москва
On Forums: 13 years 6 months
Thanks: 1727 time(s)
Russian Federation


На видосе песня точно няшная. Красиво.
Go to the top of the page
  Insert nick Quick quote
+Quote Post

Reply to this topicStart new topic
2 User(s) are reading this topic (2 Guests and 0 Anonymous Users)
0 Members:

 



- Lo-Fi Version Support form
Copyrights and abuse reports form
Time is now: 10th August 2020 - 02:22:00