Welcome Guest ( Log In | Register )

> Releases Upload / Добавление релизов

Добавить релиз тут / Click here to add release
Рекомендованные обменники / Recommended file shares

> Starblind - Black Bubbling Ooze (2020), Heavy Metal (D4)
post Jul 30 2020, 14:02:13
Post #1

Правь статус, ####!111
**************
Group: Металариец
Posts: 23,197
Releases: 16174
From: Г.Харьков
On Forums: 8 years 4 months
Thanks: 301405 time(s)
Unknown


(IMG:https://metalarea.org/images/audiocovers/2020_Jul/acov_tid340255_thumb.jpg)

*Artist: Starblind
*Album: Black Bubbling Ooze
*Year: 2020
*Genre: Heavy Metal
*Country: Sweden (IMG:https://metalarea.org/forum/style_images/flags/Sweden.png)
*Format: mp3@CBR320kbps
*Size: 81MB

Tracklist:
1. One of Us 04:23
2. At the Mountain of Madness 03:54
3. Here I Am 03:45
4. Crystal Tears 04:27
5. The Man of the Crowd 05:04
6. Room 101 04:13
7. The Reckoning 05:48
8. The Young Man 03:29
******************************
Total playing time: 35:03



Extended info
Daniel Tillberg Bass
Zakarias Wikner Drums
Björn Rosenblad Guitars
Johan Jonasson Guitars
Marcus S. Olkerud Vocals


Technical info
(IMG:https://metalarea.org/images/spectrogram/2020_Jul/57e2330e05d7ded69c84a2bce2ea5255.png)
Input File: 05 - The Man of the Crowd.mp3
Channels : 2
Sample Rate : 44100
Precision : 16-bit
Duration : 00:05:04.53 = 13429597 samples = 22839.5 CDDA sectors
File Size : 12.3M
Bit Rate : 324k
Sample Encoding: MPEG audio (layer I, II or III)
Comments :
Title=The Man of the Crowd
Artist=Starblind
Album=Black Bubbling Ooze
Tracknumber=5
Year=2020



Register


Go to the top of the page
  Insert nick Quick quote
+Quote Post
 
Start new topic
Replies (1 - 3)
post Jul 31 2020, 13:15:55
Post #2

Шесть Литров
******
Group: Металариец
Posts: 634
Releases: 0
On Forums: 11 years 2 months
Thanks: 155 time(s)
Ukraine


Хороший второй сорт-если грубо а по существу имеем довольна таки неплохой,достойный колекции альбом-респект музыкантам затворчество но,надеемся что ошибки которые были в этом альбоме они исправят!!!


Thanks:
(1) smes,
Go to the top of the page
  Insert nick Quick quote
+Quote Post
post Aug 1 2020, 12:27:50
Post #3

Правь статус, ####!111
**************
Group: Металариец
Posts: 3,140
Releases: 10
From: Dnipro
On Forums: 12 years 2 months
Thanks: 1120 time(s)
Ukraine


почти как Iron Maiden (IMG:style_emoticons/default/25.gif)


Thanks:
(1) smes,
Go to the top of the page
  Insert nick Quick quote
+Quote Post
post Aug 7 2020, 08:51:44
Post #4

Правь статус, ####!111
**************
Group: Металариец
Posts: 3,510
Releases: 1
From: Рейх
On Forums: 14 years 1 month
Thanks: 921 time(s)
Ukraine


прекрасная группа с 4 альбомом. Дань великой группе
Go to the top of the page
  Insert nick Quick quote
+Quote Post

Reply to this topicStart new topic
1 User(s) are reading this topic (1 Guests and 0 Anonymous Users)
0 Members:

 



- Lo-Fi Version Support form
Copyrights and abuse reports form
Time is now: 23rd September 2020 - 20:21:21