Welcome Guest ( Log In | Register )

> Releases Upload / Добавление релизов

Добавить релиз тут / Click here to add release
Рекомендованные обменники / Recommended file shares

> Hirsipuu - Immentikki (2019), Death Metal
post Jul 30 2020, 14:25:53
Post #1

Правь статус, ####!111
**************
Group: Металариец
Posts: 23,125
Releases: 16120
From: Г.Харьков
On Forums: 8 years 4 months
Thanks: 299777 time(s)
Unknown


(IMG:https://metalarea.org/images/audiocovers/2020_Jul/acov_tid340257_thumb.jpg)

*Artist: Hirsipuu
*Album: Immentikki
*Year: 2019
*Genre: Death Metal
*Country: Finland (IMG:https://metalarea.org/forum/style_images/flags/Finland.png)
*Format: mp3@CBR320kbps
*Size: 76MB

Tracklist:
1. Hirsipuu 04:31
2. Ruma 03:34
3. Pyhä viha 02:42
4. Moskiitto 03:13
5. Jumalleikki 03:09
6. Viimeiset sanat 03:35
7. Virus 02:10
8. Immentikki 02:10
9. Päivä jona totuus paloi 04:06
10. Kirvesmurha 03:19
******************************
Total playing time: 32:29




Extended info
Jokinen Drums
Turpeinen Guitars
Kytömäki Guitars
Gardemeister Vocals, Bass


Technical info
(IMG:https://metalarea.org/images/spectrogram/2020_Jul/1ad379049751ef91f71329c917591c15.png)
Input File: 06. Viimeiset Sanat.mp3
Channels : 2
Sample Rate : 44100
Precision : 16-bit
Duration : 00:03:35.08 = 9485072 samples = 16131.1 CDDA sectors
File Size : 8.74M
Bit Rate : 325k
Sample Encoding: MPEG audio (layer I, II or III)
Comments :
Title=Viimeiset Sanat
Artist=Hirsipuu
Album=Immentikki
Tracknumber=6
Year=2019
Genre=Death Metal



Register


Go to the top of the page
  Insert nick Quick quote
+Quote Post
 
Start new topic
Replies (1 - 1)
post Jul 31 2020, 07:40:01
Post #2

Четыре Литра
****
Group: Металариец
Posts: 302
Releases: 0
On Forums: 2 years 8 months
Thanks: 54 time(s)
Unknown


Seems fun, thanks for this.
Go to the top of the page
  Insert nick Quick quote
+Quote Post

Reply to this topicStart new topic
1 User(s) are reading this topic (1 Guests and 0 Anonymous Users)
0 Members:

 



- Lo-Fi Version Support form
Copyrights and abuse reports form
Time is now: 18th September 2020 - 17:23:49