Welcome Guest ( Log In | Register )

> Releases Upload / Добавление релизов

Добавить релиз тут / Click here to add release
Рекомендованные обменники / Recommended file shares

 
Reply to this topicStart new topic
> Beast Impalor - Goblin [ep] (2020), Symphonic Death/Folk Metal
post Jul 30 2020, 22:39:35
Post #1

Правь статус, ####!111
**************
Group: Металариец
Posts: 23,187
Releases: 16174
From: Г.Харьков
On Forums: 8 years 4 months
Thanks: 301268 time(s)
Unknown


(IMG:https://metalarea.org/images/audiocovers/2020_Jul/acov_tid340266_thumb.jpg)

*Artist: Beast Impalor
*Album: Goblin [ep]
*Year: 2020
*Genre: Symphonic Death/Folk Metal
*Country: Australia (IMG:https://metalarea.org/forum/style_images/flags/Australia.png)
*Format: mp3@CBR320kbps
*Size: 46MB

Tracklist:
1. Introducing Doctor Makrelmorgue 00:44
2. The Show (Haemo-Goblin, Pt. 1) 06:55
3. The Encore (Haemo-Goblin, Pt. 2) 07:46
4. Goblin! 04:24
******************************
Total playing time: 19:49




Extended info
Andy Read Bass
Reece Paine Guitars, Vocals (backing)
Adma Kluckers Vocals


Technical info
(IMG:https://metalarea.org/images/spectrogram/2020_Jul/eaa23c836de40b5edd9de76c8444117d.png)
Input File: Beast Impalor - Goblin - 03 The Encore (Haemo-Goblin, Pt. 2).mp3
Channels : 2
Sample Rate : 44100
Precision : 16-bit
Duration : 00:07:46.15 = 20557391 samples = 34961.5 CDDA sectors
File Size : 18.8M
Bit Rate : 322k
Sample Encoding: MPEG audio (layer I, II or III)
Comments :
Title=The Encore (Haemo-Goblin, Pt. 2)
Artist=Beast Impalor
Album=Goblin
Tracknumber=3
Year=2020



Register


Go to the top of the page
  Insert nick Quick quote
+Quote Post

Reply to this topicStart new topic
1 User(s) are reading this topic (1 Guests and 0 Anonymous Users)
0 Members:

 



- Lo-Fi Version Support form
Copyrights and abuse reports form
Time is now: 23rd September 2020 - 03:52:50