Welcome Guest ( Log In | Register )

> Releases Upload / Добавление релизов

Добавить релиз тут / Click here to add release
Рекомендованные обменники / Recommended file shares

> Shellfire - Reality... And Other Tales Of Terror (2020), Thrash Metal
post Jul 31 2020, 03:31:18
Post #1

Правь статус, ####!111
**************
Group: Металариец
Posts: 22,665
Releases: 15760
From: Г.Харьков
On Forums: 8 years 3 months
Thanks: 290137 time(s)
Unknown


(IMG:https://metalarea.org/images/audiocovers/2020_Jul/acov_tid340272_thumb.jpg)

*Artist: Shellfire
*Album: Reality... And Other Tales Of Terror
*Year: 2020
*Genre: Thrash Metal
*Country: Colombia (IMG:https://metalarea.org/forum/style_images/flags/Colombia.png)
*Format: mp3@CBR320kbps
*Size: 97MB

Tracklist:
01. Reality 05:20
02. The Crawling Chaos 05:01
03. Dog Faced God 04:31
04. Broken Hopes 05:21
05. Commanded Apocalypse 04:44
06. Psychophobia 04:42
07. 732-Squad 05:20
08. Infernal Breeze 05:25
******************************
Total playing time: 40:24



Extended info
Felipe Giraldo-Bajo
Carlomario Tascon-Guitarra Líder
Andres Castillo-Guitarra Líder / Voz
Luis Rojas-Bateria




Technical info
(IMG:https://metalarea.org/images/spectrogram/2020_Jul/448889938aeb789303807656a6eaad52.png)
Input File: 04 Broken Hopes.mp3
Channels : 2
Sample Rate : 44100
Precision : 16-bit
Duration : 00:05:21.35 = 14171535 samples = 24101.3 CDDA sectors
File Size : 13.5M
Bit Rate : 336k
Sample Encoding: MPEG audio (layer I, II or III)
Comments :
Title=Broken Hopes
Artist=Shellfire
Album=Reality... and Other Tales of Terror
Tracknumber=4/8
Year=2020-20-20
Genre=Alternative
Discnumber=1/1



Register


Go to the top of the page
  Insert nick Quick quote
+Quote Post
 
Start new topic
Replies (1 - 2)
post Aug 1 2020, 07:53:35
Post #2

hearer & reader
**************
Group: Металариец
Posts: 8,868
Releases: 145
From: Moscow
On Forums: 12 years 11 months
Thanks: 9137 time(s)
Russian Federation


https://music.yandex.ru/album/11407577


Thanks:
(1) Darkness,
Go to the top of the page
  Insert nick Quick quote
+Quote Post
post Aug 2 2020, 07:06:56
Post #3

Шесть Литров
******
Group: Металариец
Posts: 628
Releases: 0
On Forums: 11 years 1 month
Thanks: 155 time(s)
Ukraine


Теперь мы знаем что не только кокаином известна эта Латиноамериканская республик а и тем что время от времени появляються достаточно классные метал банды-вот эта яркий пример!!!по фоакту-крутейший олдскульный трэшак-в колекцию!!!!согласен в ТОП 10 этого года в разделе трэш)))))))
Go to the top of the page
  Insert nick Quick quote
+Quote Post

Reply to this topicStart new topic
1 User(s) are reading this topic (1 Guests and 0 Anonymous Users)
0 Members:

 



- Lo-Fi Version Support form
Copyrights and abuse reports form
Time is now: 10th August 2020 - 03:55:58