Welcome Guest ( Log In | Register )

> Releases Upload / Добавление релизов

Добавить релиз тут / Click here to add release
Рекомендованные обменники / Recommended file shares

> Hour Of Anguish - Into The Empty (2020), Melodic Death Metal
post Jul 31 2020, 04:48:17
Post #1

Правь статус, ####!111
**************
Group: Металариец
Posts: 22,665
Releases: 15760
From: Г.Харьков
On Forums: 8 years 3 months
Thanks: 290136 time(s)
Unknown


(IMG:https://metalarea.org/images/audiocovers/2020_Jul/acov_tid340273_thumb.jpg)

*Artist: Hour Of Anguish
*Album: Into The Empty
*Year: 2020
*Genre: Melodic Death Metal
*Country: Sweden (IMG:https://metalarea.org/forum/style_images/flags/Sweden.png)
*Format: mp3@CBR320kbps
*Size: 106MB

Tracklist:
1. Oblivion 05:29
2. Denial 05:06
3. Living Dead 05:12
4. Into the Empty 05:19
5. Within 03:54
6. Left in Mourning 04:46
7. My Dark Mind 04:32
8. A Ghost of Memories 04:03
9. The Devil in My Eyes 05:47
******************************
Total playing time: 44:08



Extended info
Andreas Henriksson Unknown (2015-present)
See also: ex-Somber, ex-Krematorium
Richard Lee Unknown (2015-present)


Technical info
(IMG:https://metalarea.org/images/spectrogram/2020_Jul/730f4f9bdf536476eeeaa4a857239098.png)
Input File: 04 Into the Empty.mp3
Channels : 2
Sample Rate : 44100
Precision : 16-bit
Duration : 00:05:19.47 = 14088583 samples = 23960.2 CDDA sectors
File Size : 13.3M
Bit Rate : 333k
Sample Encoding: MPEG audio (layer I, II or III)
Comments :
Title=Into the Empty
Artist=Hour of Anguish
Album=Into the Empty
Tracknumber=4/9
Year=2020-20-20
Genre=Alternative
Discnumber=1/1



Register


Go to the top of the page
  Insert nick Quick quote
+Quote Post
 
Start new topic
Replies (1 - 3)
post Aug 1 2020, 07:51:42
Post #2

hearer & reader
**************
Group: Металариец
Posts: 8,868
Releases: 145
From: Moscow
On Forums: 12 years 11 months
Thanks: 9137 time(s)
Russian Federation


https://music.yandex.ru/album/11309886
Go to the top of the page
  Insert nick Quick quote
+Quote Post
post Aug 1 2020, 15:12:59
Post #3

Четыре Литра
****
Group: Металариец
Posts: 349
Releases: 0
From: Лыткарино
On Forums: 1 year 3 months
Thanks: 83 time(s)
Russian Federation


Хорошая вещь.
Go to the top of the page
  Insert nick Quick quote
+Quote Post
post Aug 7 2020, 02:17:43
Post #4

Ъ
**************
Group: Металариец
Posts: 10,177
Releases: 9
On Forums: 11 years 7 months
Thanks: 2051 time(s)
Sweden


Третьесорт.
Go to the top of the page
  Insert nick Quick quote
+Quote Post

Reply to this topicStart new topic
1 User(s) are reading this topic (1 Guests and 0 Anonymous Users)
0 Members:

 



- Lo-Fi Version Support form
Copyrights and abuse reports form
Time is now: 10th August 2020 - 03:11:18