Welcome Guest ( Log In | Register )

> Releases Upload / Добавление релизов

Добавить релиз тут / Click here to add release
Рекомендованные обменники / Recommended file shares

 
Reply to this topicStart new topic
> Skrawl - Brother Butchers Brother [demo] (2018), Black Metal/Punk (D4)
post Jul 31 2020, 05:14:59
Post #1

Правь статус, ####!111
**************
Group: Металариец
Posts: 4,605
Releases: 1336
From: Brazil
On Forums: 8 years 7 months
Thanks: 49810 time(s)
Brazil


(IMG:http://metalarea.org/images/audiocovers/2020_Jul/acov_tid340274_thumb.jpg)

*Artist: Skrawl
*Album: Brother Butchers Brother [demo]
*Year: 2018
*Genre: Black Metal/Punk
*Country: United States (IMG:http://metalarea.org/forum/style_images/flags/United%20States.png)
*Format: mp3@VBR260kbps
*Size: 17MB

Tracklist:
1. That Which Kills 03:09
2. North / Black Sun Bloody Moon (Current 93 Cover) 01:38
3. Blind In Both Eyes 02:40
4. Invocation of the Killing Frost 01:32
******************************
Total playing time: 8:59

Extended info
Primitive Propaganda

Tape-rip by Zero


Technical info
(IMG:http://metalarea.org/images/spectrogram/2020_Jul/2027d35b1248a6a17c5e0a918255a1cc.png)
Input File: 04 Invocation of the Killing Frost.mp3
Channels : 2
Sample Rate : 44100
Precision : 16-bit
Duration : 00:01:26.49 = 3814253 samples = 6486.82 CDDA sectors
File Size : 3.07M
Bit Rate : 284k
Sample Encoding: MPEG audio (layer I, II or III)
Comments :
Title=Invocation of the Killing Frost
Artist=Skrawl
Album=Brother Butchers Brother
Tracknumber=04/4
Year=2018
Genre=Black/Punk
Discnumber=1/1



Register


Go to the top of the page
  Insert nick Quick quote
+Quote Post

Reply to this topicStart new topic
1 User(s) are reading this topic (1 Guests and 0 Anonymous Users)
0 Members:

 



- Lo-Fi Version Support form
Copyrights and abuse reports form
Time is now: 18th September 2020 - 17:46:32