Welcome Guest ( Log In | Register )

> Releases Upload / Добавление релизов

Добавить релиз тут / Click here to add release
Рекомендованные обменники / Recommended file shares

> Ûkcheânsâlâwit - Tekipuk [demo] (2020), Black Metal
post Jul 31 2020, 05:20:34
Post #1

Правь статус, ####!111
**************
Group: Металариец
Posts: 4,563
Releases: 1299
From: Brazil
On Forums: 8 years 6 months
Thanks: 48491 time(s)
Brazil


(IMG:http://metalarea.org/images/audiocovers/2020_Jul/acov_tid340275_thumb.jpg)

*Artist: Ûkcheânsâlâwit
*Album: Tekipuk [demo]
*Year: 2020
*Genre: Black Metal
*Country: Canada (IMG:http://metalarea.org/forum/style_images/flags/Canada.png)
*Format: mp3@VBR270kbps
*Size: 45MB

Tracklist:
1. Piskiaq: And The Night Will Reveal Magic 06:31
2. Kloqowej: Whispering Stars In The Winter Blizzard 05:18
3. Aluamkwiaq: Observing Gloomy Horizons From The Ancient Watch Tower 05:33
4. Ginujin: Enraptured By Pride And Ecstatic Chills 05:29
******************************
Total playing time: 22:51



Extended info
Corde Raide Productions

native
depressive
black
metal

Tape-rip by Zero


Technical info
(IMG:http://metalarea.org/images/spectrogram/2020_Jul/0b38a3ad7f9e69c58252d66a160d4da5.png)
Input File: 02 Kloqowej Whispering Stars In The Winter Blizzard.mp3
Channels : 2
Sample Rate : 44100
Precision : 16-bit
Duration : 00:05:18.67 = 14053215 samples = 23900 CDDA sectors
File Size : 10.8M
Bit Rate : 271k
Sample Encoding: MPEG audio (layer I, II or III)
Comments :
Title=Kloqowej: Whispering Stars In The Winter Blizzard
Artist=Ûkcheânsâlâwit
Album=Tekipuk
Tracknumber=02/4
Year=2020
Genre=Black Metal
Discnumber=1/1



Register


Go to the top of the page
  Insert nick Quick quote
+Quote Post
 
Start new topic
Replies (1 - 2)
post Aug 1 2020, 10:01:25
Post #2

.
**************
Group: Металариец
Posts: 3,989
Releases: 0
On Forums: 4 years 6 months
Thanks: 2643 time(s)
Russian Federation


неспешная и атмосферная труха с минималистскими клавишами (IMG:style_emoticons/default/true_black.gif)
лесной блэк(ц)
звучит банально, но не пошло, сумеречная глубина лесных чащ.
чем и цепляет.


Thanks:
Go to the top of the page
  Insert nick Quick quote
+Quote Post
post Aug 1 2020, 10:35:48
Post #3

убивай меломанов
*********
Group: Металариец
Posts: 976
Releases: 6
On Forums: 9 years 11 months
Thanks: 1281 time(s)
Ukraine


https://youtu.be/Iv3mhoZeUrw

индейский блэк (а перед нами именно он, как я понимаю) почему-то всегда крутой.
к примеру тот же invunche никак не хуже видара, при том, что остальные его клоны определенно хуже.
есть у краснокожих в музыке какая-то правильная психоделичная изюминка.


Thanks:
Go to the top of the page
  Insert nick Quick quote
+Quote Post

Reply to this topicStart new topic
2 User(s) are reading this topic (2 Guests and 0 Anonymous Users)
0 Members:

 



- Lo-Fi Version Support form
Copyrights and abuse reports form
Time is now: 11th August 2020 - 22:15:49