Welcome Guest ( Log In | Register )

> Releases Upload / Добавление релизов

Добавить релиз тут / Click here to add release
Рекомендованные обменники / Recommended file shares

 
Reply to this topicStart new topic
> Carved Cross & Torrid Death's Fire - Carved Cross/Torrid Death's Fire [split] (2020), Raw Black Metal | Raw Black Metal (D)
post Jul 31 2020, 05:25:34
Post #1

Правь статус, ####!111
**************
Group: Металариец
Posts: 4,563
Releases: 1299
From: Brazil
On Forums: 8 years 6 months
Thanks: 48462 time(s)
Brazil


(IMG:http://metalarea.org/images/audiocovers/2020_Jul/acov_tid340276_thumb.jpg)

*Artist: Carved Cross & Torrid Death's Fire
*Album: Carved Cross/Torrid Death's Fire [split]
*Year: 2020
*Genre: Raw Black Metal | Raw Black Metal
*Country: Australia (IMG:http://metalarea.org/forum/style_images/flags/Australia.png) | United States (IMG:http://metalarea.org/forum/style_images/flags/United%20States.png)
*Format: mp3@VBR260kbps
*Size: 31MB

Tracklist:
Carved Cross:
1. Intrusion 03:33
2. Remarkable Evolution 04:54
Torrid Death's Fire:
3. Profound Revelation From The Self 07:30
******************************
Total playing time: 15:57

(IMG:http://metalarea.org/images/youtube.png)

Extended info
Perverse Homage

Tape-rip by Zero


Technical info
(IMG:http://metalarea.org/images/spectrogram/2020_Jul/46592a9bfac88a477cf6fab3c0dd90a5.png)
Input File: 01 Intrusion.mp3
Channels : 2
Sample Rate : 44100
Precision : 16-bit
Duration : 00:03:33.08 = 9396828 samples = 15981 CDDA sectors
File Size : 6.94M
Bit Rate : 261k
Sample Encoding: MPEG audio (layer I, II or III)
Comments :
Title=Intrusion
Artist=Carved Cross
Album=Carved Cross / Torrid Death's Fire
Tracknumber=01/3
Year=2020
Genre=Black Metal
Discnumber=1/1



Register


Go to the top of the page
  Insert nick Quick quote
+Quote Post

Reply to this topicStart new topic
1 User(s) are reading this topic (1 Guests and 0 Anonymous Users)
0 Members:

 



- Lo-Fi Version Support form
Copyrights and abuse reports form
Time is now: 10th August 2020 - 02:37:00