Welcome Guest ( Log In | Register )

> Releases Upload / Добавление релизов

Добавить релиз тут / Click here to add release
Рекомендованные обменники / Recommended file shares

> Goat Hill Massacre - Black Water Burial (2020), Thrash/Groove Metal
post Jul 31 2020, 05:25:35
Post #1

Правь статус, ####!111
**************
Group: Металариец
Posts: 22,665
Releases: 15760
From: Г.Харьков
On Forums: 8 years 3 months
Thanks: 290137 time(s)
Unknown


(IMG:https://metalarea.org/images/audiocovers/2020_Jul/acov_tid340277_thumb.jpg)

*Artist: Goat Hill Massacre
*Album: Black Water Burial
*Year: 2020
*Genre: Thrash/Groove Metal
*Country: United States (IMG:https://metalarea.org/forum/style_images/flags/United%20States.png)
*Format: mp3@CBR320kbps
*Size: 90MB

Tracklist:
1. All Flesh Is Equal When Burned 05:05
2. Curse of Goathulu 04:55
3. Mountain of the Dead 03:48
4. Sudden Nocturnal Death Syndrome 03:11
5. The Raven 04:55
6. Abomination 05:16
7. Black Water Burial 09:46
******************************
Total playing time: 36:56




Extended info
Josh Walton Bass
Danielle Wilkins Drums
Joe Wilkins Guitars
Andre Whitehair Vocals


Technical info
(IMG:https://metalarea.org/images/spectrogram/2020_Jul/37f83949c64395a170422b2b6d991889.png)
Input File: 05 The Raven.mp3
Channels : 2
Sample Rate : 44100
Precision : 16-bit
Duration : 00:04:55.93 = 13050557 samples = 22194.8 CDDA sectors
File Size : 12.6M
Bit Rate : 340k
Sample Encoding: MPEG audio (layer I, II or III)
Comments :
Title=The Raven
Artist=Goat Hill Massacre
Album=Black Water Burial
Tracknumber=5/7
Year=2020-20-20
Genre=Metal
Discnumber=1/1



Register


Go to the top of the page
  Insert nick Quick quote
+Quote Post
 
Start new topic
Replies (1 - 1)
post Aug 1 2020, 13:58:57
Post #2

Group: Дух
Posts: 9
Releases: 0
On Forums: 6 years 9 months
Thanks: 1 time(s)
Germany


thank you


Thanks:
Go to the top of the page
  Insert nick Quick quote
+Quote Post

Reply to this topicStart new topic
2 User(s) are reading this topic (2 Guests and 0 Anonymous Users)
0 Members:

 



- Lo-Fi Version Support form
Copyrights and abuse reports form
Time is now: 10th August 2020 - 03:33:20