Welcome Guest ( Log In | Register )

> Releases Upload / Добавление релизов

Добавить релиз тут / Click here to add release
Рекомендованные обменники / Recommended file shares

 
Reply to this topicStart new topic
> Häresie & Nächtlich - Häresie/Nächtlich [split] (2020), Black Metal | Black Metal (D)
post Jul 31 2020, 05:31:52
Post #1

Правь статус, ####!111
**************
Group: Металариец
Posts: 4,563
Releases: 1299
From: Brazil
On Forums: 8 years 6 months
Thanks: 48491 time(s)
Brazil


(IMG:http://metalarea.org/images/audiocovers/2020_Jul/acov_tid340278_thumb.png)

*Artist: Häresie & Nächtlich
*Album: Häresie/Nächtlich [split]
*Year: 2020
*Genre: Black Metal | Black Metal
*Country: Unknown (IMG:http://metalarea.org/forum/style_images/flags/Unknown.png) | Canada (IMG:http://metalarea.org/forum/style_images/flags/Canada.png)
*Format: mp3@CBR320kbps
*Size: 92MB

Tracklist:
Häresie:
1. Kulde 05:14
2. Das Moor 05:07
3. Transmission to the Realm of Unknown Sources of Residual Evilness 04:54
Nächtlich:
4. Out of Their Coffins... Grinning 07:26
5. Leaping Through Rows of the Rotting Impaled 02:52
6. An Endless March to the Innermost Cavern in Hells Reach 05:14
******************************
Total playing time: 30:47

Extended info
Sick split between two terrific Raw Black Metal hordes from recent years.
Häresie's side is an incredibly layered mix of Raw Black Metal and post-punk in the vein of Enshroud, Obsidian Forest and Nekrodrone, while Nächtlich's side, as usual, is great punk-ish, epic but ferocious Raw Black Metal with amazing keyboard work, definitely a band to highlight amongst the incredibly rich canadian scene.

Release on LP via Livor Mortis.

Vinyl-rip by toooooomb
+ Scans


Technical info
(IMG:http://metalarea.org/images/spectrogram/2020_Jul/137729f9ac49d71268943dc18c667b6c.png)
Input File: 02. Häresie - Das Moor.mp3
Channels : 2
Sample Rate : 44100
Precision : 16-bit
Duration : 00:05:07.87 = 13577067 samples = 23090.2 CDDA sectors
File Size : 12.3M
Bit Rate : 320k
Sample Encoding: MPEG audio (layer I, II or III)
Comments :
Title=Das Moor
Artist=Häresie
Album=Häresie / Nächtlich
Tracknumber=2/6
Year=2020
Genre=Black Metal



Register


Go to the top of the page
  Insert nick Quick quote
+Quote Post

Reply to this topicStart new topic
2 User(s) are reading this topic (2 Guests and 0 Anonymous Users)
0 Members:

 



- Lo-Fi Version Support form
Copyrights and abuse reports form
Time is now: 11th August 2020 - 23:17:29