Welcome Guest ( Log In | Register )

> Releases Upload / Добавление релизов

Добавить релиз тут / Click here to add release
Рекомендованные обменники / Recommended file shares

> War Hammer - War To Follow (2020), Heavy Metal
post Jul 31 2020, 06:33:19
Post #1

Правь статус, ####!111
**************
Group: Металариец
Posts: 22,665
Releases: 15760
From: Г.Харьков
On Forums: 8 years 3 months
Thanks: 290137 time(s)
Unknown


(IMG:https://metalarea.org/images/audiocovers/2020_Jul/acov_tid340279_thumb.jpg)

*Artist: War Hammer
*Album: War To Follow
*Year: 2020
*Genre: Heavy Metal
*Country: United States (IMG:https://metalarea.org/forum/style_images/flags/United%20States.png)
*Format: mp3@CBR320kbps
*Size: 73MB

Tracklist:
1. Cross Contamination 03:50
2. Where Demons Dwell 03:05
3. Open Season 03:51
4. The Bloodline Feed 04:26
5. Dark Horizon 04:30
6. Blood Moon Rising 03:51
7. Porcelain King 03:21
8. War Machine 04:44
******************************
Total playing time: 31:38



Extended info
Terry Richards Bass, Vocals
Rich Campbell Drums
Jesse Gonzales Guitars, Vocals
Mike Krugman Guitars


Technical info
(IMG:https://metalarea.org/images/spectrogram/2020_Jul/092713f7c7b08ebfa8211b3f77afe1a5.png)
Input File: 05 - Dark Horizon.mp3
Channels : 2
Sample Rate : 44100
Precision : 16-bit
Duration : 00:04:30.20 = 11915776 samples = 20264.9 CDDA sectors
File Size : 11.0M
Bit Rate : 326k
Sample Encoding: MPEG audio (layer I, II or III)
Comments :
Title=Dark Horizon
Artist=War Hammer
Album=War to Follow
Tracknumber=5
Year=2020



Register


Go to the top of the page
  Insert nick Quick quote
+Quote Post
 
Start new topic
Replies (1 - 1)
post Aug 1 2020, 08:07:22
Post #2

Шесть Литров
******
Group: Металариец
Posts: 628
Releases: 0
On Forums: 11 years 1 month
Thanks: 155 time(s)
Ukraine


Америка всегда была одной из тех стран которые поставляли классные металические колективы.Спасибо и за этот,банда с со своим характерным лицом правда как то американская прогрессив метал школа всё же присутсвует в музыке.Релиз однозначно в колекцию!!!
Go to the top of the page
  Insert nick Quick quote
+Quote Post

Reply to this topicStart new topic
1 User(s) are reading this topic (1 Guests and 0 Anonymous Users)
0 Members:

 



- Lo-Fi Version Support form
Copyrights and abuse reports form
Time is now: 10th August 2020 - 03:40:53