Welcome Guest ( Log In | Register )

> Releases Upload / Добавление релизов

Добавить релиз тут / Click here to add release
Рекомендованные обменники / Recommended file shares

 
Reply to this topicStart new topic
> Underkript - Parables (2020), Progressive Thrash/Groove Metal (D4)
post Jul 31 2020, 07:20:29
Post #1

Правь статус, ####!111
**************
Group: Металариец
Posts: 23,125
Releases: 16120
From: Г.Харьков
On Forums: 8 years 4 months
Thanks: 299793 time(s)
Unknown


(IMG:https://metalarea.org/images/audiocovers/2020_Jul/acov_tid340281_thumb.jpg)

*Artist: Underkript
*Album: Parables
*Year: 2020
*Genre: Progressive Thrash/Groove Metal
*Country: United Kingdom (IMG:https://metalarea.org/forum/style_images/flags/United%20Kingdom.png)
*Format: mp3@CBR320kbps
*Size: 109MB

Tracklist:
1. Born Benign to This World 08:40
2. Void of Light 05:06
3. Seasons Change 07:21
4. Transcendence 09:33
5. Dysphoria (feat. Niko Tsonev)Niko Tsonev 06:29
6. Ascension 08:27
******************************
Total playing time: 45:36




Extended info
Josh Wilkinson Bass, Vocals (backing) (2014-present)
MJ Anderson Vocals (lead), Guitars (2014-present)
See also: Seracrusis, ex-Saigon
Ruari Ferguson Drums (2018-present)


Technical info
(IMG:https://metalarea.org/images/spectrogram/2020_Jul/5cbb0c88c2f518ba0cb8dac2c33280c5.png)
Input File: 03 Seasons Change.mp3
Channels : 2
Sample Rate : 44100
Precision : 16-bit
Duration : 00:07:21.13 = 19453745 samples = 33084.6 CDDA sectors
File Size : 18.3M
Bit Rate : 332k
Sample Encoding: MPEG audio (layer I, II or III)
Comments :
Title=Seasons Change
Artist=Underkript
Album=Parables
Tracknumber=3/6
Year=2020-20-20
Genre=Metal
Discnumber=1/1



Register


Go to the top of the page
  Insert nick Quick quote
+Quote Post

Reply to this topicStart new topic
1 User(s) are reading this topic (1 Guests and 0 Anonymous Users)
0 Members:

 



- Lo-Fi Version Support form
Copyrights and abuse reports form
Time is now: 18th September 2020 - 18:40:32