Welcome Guest ( Log In | Register )

> Releases Upload / Добавление релизов

Добавить релиз тут / Click here to add release
Рекомендованные обменники / Recommended file shares

> 25Th Mission - Disciples Of Metal (2020), Heavy Metal
post Jul 31 2020, 07:35:36
Post #1

Правь статус, ####!111
**************
Group: Металариец
Posts: 22,611
Releases: 15709
From: Г.Харьков
On Forums: 8 years 2 months
Thanks: 288994 time(s)
Unknown


(IMG:https://metalarea.org/images/audiocovers/2020_Jul/acov_tid340282_thumb.jpg)

*Artist: 25Th Mission
*Album: Disciples Of Metal
*Year: 2020
*Genre: Heavy Metal
*Country: United States (IMG:https://metalarea.org/forum/style_images/flags/United%20States.png)
*Format: mp3@CBR320kbps
*Size: 169MB

Tracklist:
1. Laid to Waste 05:10
2. Signs from Above 04:08
3. Tantrum 04:02
4. Die before I Kill You (a love song) 04:48
5. Left Behind 05:55
6. Ode to Hardrada 05:00
7. Swingblade 05:59
8. We are the Ones 05:16
9. Every Mother's Nightmare 03:51
10. Folsom Prison Blues 03:02
11. Hit 'em Again 05:43
12. Bitchin' 04:37
13. Bullet in the Chamber 05:15
14. Shakedown 04:38
15. Lunacy's Son 05:29
******************************
Total playing time: 1:12:53




Extended info
Vinny Carollo Bass
James Baldassano Drums
See also: ex-Hostile Intent, Damn Your Eyes, Show No Mercy (Slayer tribute), ex-No Redeeming Social Value
Pat Picarsic Guitars (lead)
Mike Deyhle Vocals


Technical info
(IMG:https://metalarea.org/images/spectrogram/2020_Jul/e9dfb4b50e42fc4800edfc51ab4498d6.png)
Input File: 05 - Left Behind.mp3
Channels : 2
Sample Rate : 44100
Precision : 16-bit
Duration : 00:05:55.10 = 15659998 samples = 26632.6 CDDA sectors
File Size : 14.4M
Bit Rate : 324k
Sample Encoding: MPEG audio (layer I, II or III)
Comments :
Title=Left Behind
Artist=25th Mission
Album=Desciples of Metal
Tracknumber=5
Year=2020



Register


Go to the top of the page
  Insert nick Quick quote
+Quote Post
 
Start new topic
Replies (1 - 1)
post Aug 1 2020, 15:08:01
Post #2

Маньяк
**********
Group: Металариец
Posts: 1,381
Releases: 5
From: Нью-Васюки
On Forums: 14 years 2 months
Thanks: 404 time(s)
Russian Federation


Помои
Go to the top of the page
  Insert nick Quick quote
+Quote Post

Reply to this topicStart new topic
1 User(s) are reading this topic (1 Guests and 0 Anonymous Users)
0 Members:

 



- Lo-Fi Version Support form
Copyrights and abuse reports form
Time is now: 5th August 2020 - 10:55:42