Welcome Guest ( Log In | Register )

> Releases Upload / Добавление релизов

Добавить релиз тут / Click here to add release
Рекомендованные обменники / Recommended file shares

> Visceral Mass - Visceral Mass [ep] (2020), Death Metal
post Jul 31 2020, 09:21:59
Post #1

Правь статус, ####!111
**************
Group: Металариец
Posts: 22,674
Releases: 15764
From: Г.Харьков
On Forums: 8 years 3 months
Thanks: 290416 time(s)
Unknown


(IMG:https://metalarea.org/images/audiocovers/2020_Jul/acov_tid340283_thumb.jpg)

*Artist: Visceral Mass
*Album: Visceral Mass [ep]
*Year: 2020
*Genre: Death Metal
*Country: United States (IMG:https://metalarea.org/forum/style_images/flags/United%20States.png)
*Format: mp3@CBR320kbps
*Size: 35MB

Tracklist:
1. Human Stew 03:08
2. Flesh Eating Deceased 02:44
3. Verses of Perversion 04:48
4. Drowning in Rot 03:07
******************************
Total playing time: 13:47



Extended info
Jack Unknown
Max Unknown


Technical info
(IMG:https://metalarea.org/images/spectrogram/2020_Jul/dd5a3e53f21ced7a4c2163e3bfb4c4ba.png)
Input File: 03 Verses of Perversion.mp3
Channels : 2
Sample Rate : 44100
Precision : 16-bit
Duration : 00:04:48.72 = 12732596 samples = 21654.1 CDDA sectors
File Size : 12.2M
Bit Rate : 338k
Sample Encoding: MPEG audio (layer I, II or III)
Comments :
Title=Verses of Perversion
Artist=Visceral Mass
Album=Visceral Mass
Tracknumber=3/4
Year=2020-20-20
Genre=Metal
Discnumber=1/1



Register


Go to the top of the page
  Insert nick Quick quote
+Quote Post
 
Start new topic
Replies (1 - 1)
post Aug 3 2020, 12:18:02
Post #2

Шесть Литров
******
Group: Металариец
Posts: 669
Releases: 1
From: APATIN, SERBIA, АПАТИН, СЕРБИЯ
On Forums: 12 years 9 months
Thanks: 1112 time(s)



Flac

Register


Thanks:
(1) Olethros,
Go to the top of the page
  Insert nick Quick quote
+Quote Post

Reply to this topicStart new topic
2 User(s) are reading this topic (2 Guests and 0 Anonymous Users)
0 Members:

 



- Lo-Fi Version Support form
Copyrights and abuse reports form
Time is now: 11th August 2020 - 22:21:39