Welcome Guest ( Log In | Register )

> Releases Upload / Добавление релизов

Добавить релиз тут / Click here to add release
Рекомендованные обменники / Recommended file shares

> Argos - Final Sentence Of The Sacrilege (2017), Heavy/Thrash Metal (D9)
post Jul 31 2020, 09:45:48
Post #1

Join my religion, or die
**************
Group: Металариец
Posts: 10,768
Releases: 1538
From: Питера
On Forums: 10 years 10 months
Thanks: 20010 time(s)
Russian Federation


(IMG:https://metalarea.org/images/audiocovers/2020_Jul/acov_tid340285_thumb.jpg)

*Artist: Argos
*Album: Final Sentence Of The Sacrilege
*Year: 2017
*Genre: Heavy/Thrash Metal
*Country: Costa Rica (IMG:https://metalarea.org/forum/style_images/flags/Costa%20Rica.png)
*Format: mp3@CBR320kbps
*Size: 52MB

Tracklist:
01. The Final Time
02. Ouija
03. Sentence
04. Pain
05. Sacrilegio
06. Intro
******************************
Total playing time: 22:26

Extended info
Первый альбом группы, играющей с 80х
Эта версия альбома состоит из 6 песен и не включает в себя 3 песни,
дополнившие этот альбом из первого демо, как указано на архивах.


Technical info
(IMG:https://metalarea.org/images/spectrogram/2020_Jul/5ee3ff47686c015083b4f26f0f66ec6b.png)
Input File: 01 The Final Time.mp3
Channels : 2
Sample Rate : 44100
Precision : 16-bit
Duration : 00:03:43.00 = 9834300 samples = 16725 CDDA sectors
File Size : 9.02M
Bit Rate : 324k
Sample Encoding: MPEG audio (layer I, II or III)
Comments :
Title=The Final Time
Artist=Argoz
Album=2017 Final Sentence of the Sacrilege
Tracknumber=01/06
Year=2017
Genre=Heavy/Thrash Metal



Register


Go to the top of the page
  Insert nick Quick quote
+Quote Post
 
Start new topic
Replies (1 - 1)
post Jul 31 2020, 15:34:40
Post #2

Маньяк
**********
Group: Металариец
Posts: 1,330
Releases: 0
From: Russian Federation - St.Petersburg
On Forums: 11 years 5 months
Thanks: 337 time(s)
Russian Federation


(IMG:style_emoticons/default/12.gif)
https://www.youtube.com/watch?v=a9jTLpDSpMg
Go to the top of the page
  Insert nick Quick quote
+Quote Post

Reply to this topicStart new topic
2 User(s) are reading this topic (2 Guests and 0 Anonymous Users)
0 Members:

 



- Lo-Fi Version Support form
Copyrights and abuse reports form
Time is now: 11th August 2020 - 22:35:38