Welcome Guest ( Log In | Register )

> Releases Upload / Добавление релизов

Добавить релиз тут / Click here to add release
Рекомендованные обменники / Recommended file shares

> Taunted - Songs From The Wasteland (2020), Thrash/Power Metal (D4)
post Jul 31 2020, 10:40:50
Post #1

Правь статус, ####!111
**************
Group: Металариец
Posts: 22,672
Releases: 15764
From: Г.Харьков
On Forums: 8 years 3 months
Thanks: 290371 time(s)
Unknown


(IMG:https://metalarea.org/images/audiocovers/2020_Jul/acov_tid340286_thumb.jpg)

*Artist: Taunted
*Album: Songs From The Wasteland
*Year: 2020
*Genre: Thrash/Power Metal
*Country: United States (IMG:https://metalarea.org/forum/style_images/flags/United%20States.png)
*Format: mp3@CBR320kbps
*Size: 116MB

Tracklist:
1. Evil Seed 05:06
2. Red Death 04:11
3. Deep into the Dark 05:39
4. Taunted Again 10:19
5. Devil's Daughter 05:05
6. God Fed Sin 05:03
7. Weeping at the Gates 05:25
8. Ripping at the Flesh 04:50
9. Shinning 03:35
******************************
Total playing time: 49:13



Extended info
Henry Moreno Drums
See also: Mind of Fury, Tramontane, ex-Xzanthus, ex-Imagika, ex-The Element, ex-Wicked Truth
Matt Gower Guitars
See also: ex-Hollow Point Syndicate
Joey Genoni Guitars (1992-present)
See also: Annihilation, ex-Split Image
Jaques Serrano Vocals (1992-present)
See also: Annihilation, Cultural Warfare, ex-Split Image, ex-System of Pain
Elena Repetto-Luciano Bass (2011-present)
See also: Bomb and Scary, ex-Machine Called Man, ex-Mother Earth, ex-Imagika, ex-Skinner, ex-AC/DZ (AC/DC tribute)


Technical info
(IMG:https://metalarea.org/images/spectrogram/2020_Jul/620fc561bdfcd12de4ccf852892a9093.png)
Input File: 05 Devil\'s Daughter.mp3
Channels : 2
Sample Rate : 44100
Precision : 16-bit
Duration : 00:05:05.39 = 13467611 samples = 22904.1 CDDA sectors
File Size : 12.7M
Bit Rate : 332k
Sample Encoding: MPEG audio (layer I, II or III)
Comments :
Title=Devil's Daughter
Artist=Taunted
Album=Songs from the Wasteland
Tracknumber=5/9
Year=2020-20-20
Genre=Alternative
Discnumber=1/1



Register


Go to the top of the page
  Insert nick Quick quote
+Quote Post
 
Start new topic
Replies (1 - 1)
post Aug 2 2020, 07:00:58
Post #2

Шесть Литров
******
Group: Металариец
Posts: 628
Releases: 0
On Forums: 11 years 1 month
Thanks: 155 time(s)
Ukraine


От чего то именно в Штатах много таких как єта команд,вроде всё записанно и сыгранно круто,а по факту слушаеться как музыкальный фон,по типу...блин а кто это так круто нарезает-та....Taunted-круто!!а послушаешь,опять таки всё супер но,запоменаемости особой нет,мелодий нет и большая доля какого то прогрессива-психоделика,аля Nevermore,Anacrusis,Voivod,Biomechanical и т.д
Go to the top of the page
  Insert nick Quick quote
+Quote Post

Reply to this topicStart new topic
1 User(s) are reading this topic (1 Guests and 0 Anonymous Users)
0 Members:

 



- Lo-Fi Version Support form
Copyrights and abuse reports form
Time is now: 11th August 2020 - 16:38:56