Welcome Guest ( Log In | Register )

> Releases Upload / Добавление релизов

Добавить релиз тут / Click here to add release
Рекомендованные обменники / Recommended file shares

> Atomic Aggressor - Invoking The Primal Chaos [ep] (2019), Death Metal (D)
post Jul 31 2020, 11:22:21
Post #1

Join my religion, or die
**************
Group: Металариец
Posts: 10,768
Releases: 1538
From: Питера
On Forums: 10 years 10 months
Thanks: 20010 time(s)
Russian Federation


(IMG:https://metalarea.org/images/audiocovers/2020_Jul/acov_tid340287_thumb.jpg)

*Artist: Atomic Aggressor
*Album: Invoking The Primal Chaos [ep]
*Year: 2019
*Genre: Death Metal
*Country: Chile (IMG:https://metalarea.org/forum/style_images/flags/Chile.png)
*Format: mp3@CBR320kbps
*Size: 44MB

Tracklist:
01. The Primal Chaos 04:17
02. Summoners Absolution 03:54
03. Primordial Wisdom 05:00
04. Archetypal Balance 05:44
******************************
Total playing time: 18:55

(IMG:https://metalarea.org/images/youtube.png)

Technical info
(IMG:https://metalarea.org/images/spectrogram/2020_Jul/566d13542f6a8e6c59da97bc844def32.png)
Input File: 03 Primordial Wisdom.mp3
Channels : 2
Sample Rate : 44100
Precision : 16-bit
Duration : 00:05:00.53 = 13253461 samples = 22539.9 CDDA sectors
File Size : 12.2M
Bit Rate : 324k
Sample Encoding: MPEG audio (layer I, II or III)
Comments :
Title=Primordial Wisdom
Artist=Atomic Aggressor
Album=2019 Invoking the Primal Chaos
Tracknumber=03/04
Year=2019
Genre=Death Metal



Register


Go to the top of the page
  Insert nick Quick quote
+Quote Post
 
Start new topic
Replies (1 - 1)
post Aug 3 2020, 15:25:16
Post #2

Правь статус, ####!111
**************
Group: Металариец
Posts: 7,103
Releases: 165
From: URUGUAY
On Forums: 13 years 10 months
Thanks: 19766 time(s)
Uruguay


mirror
Register


Thanks:
(1) Olethros,
Go to the top of the page
  Insert nick Quick quote
+Quote Post

Reply to this topicStart new topic
2 User(s) are reading this topic (2 Guests and 0 Anonymous Users)
0 Members:

 



- Lo-Fi Version Support form
Copyrights and abuse reports form
Time is now: 11th August 2020 - 22:46:05