Welcome Guest ( Log In | Register )

> Releases Upload / Добавление релизов

Добавить релиз тут / Click here to add release
Рекомендованные обменники / Recommended file shares

> Brotthogg - The Die Is Cast (2020), Progressive Blackened Melodic Death Metal
post Jul 31 2020, 11:56:29
Post #1

Правь статус, ####!111
**************
Group: Металариец
Posts: 22,674
Releases: 15764
From: Г.Харьков
On Forums: 8 years 3 months
Thanks: 290418 time(s)
Unknown


(IMG:https://metalarea.org/images/audiocovers/2020_Jul/acov_tid340289_thumb.jpg)

*Artist: Brotthogg
*Album: The Die Is Cast
*Year: 2020
*Genre: Progressive Blackened Melodic Death Metal
*Country: Norway (IMG:https://metalarea.org/forum/style_images/flags/Norway.png)
*Format: mp3@CBR320kbps
*Size: 84MB

Tracklist:
1. Nokturne 05:21
2. Behind the Gateways 05:32
3. Liberation 05:04
4. Draugen 05:44
5. Forlis 04:34
6. Resurrection 04:36
7. Iacta Alea Est 06:11
******************************
Total playing time: 37:02




Extended info
Kristian Larsen Moen All instruments (2017-present)
See also: Subliritum, ex-Hinn Mesta, ex-Toxic
Craig Furunes Vocals (2017-present)
See also: Chton, Demontera
Jonas Moen Vocals (2017-present)
See also: Subliritum, ex-Hinn Mesta


Technical info
(IMG:https://metalarea.org/images/spectrogram/2020_Jul/214ef9cdcb6475036fef009480a2e338.png)
Input File: 04 - Draugen.mp3
Channels : 2
Sample Rate : 44100
Precision : 16-bit
Duration : 00:05:43.38 = 15142838 samples = 25753.1 CDDA sectors
File Size : 13.8M
Bit Rate : 321k
Sample Encoding: MPEG audio (layer I, II or III)
Comments :
Title=Draugen
Artist=Brotthogg
Album=The Die Is Cast
Tracknumber=4
Year=2020
Discnumber=1



Register


Go to the top of the page
  Insert nick Quick quote
+Quote Post
 
Start new topic
Replies (1 - 5)
post Aug 1 2020, 10:34:33
Post #2

Правь статус, ####!111
**************
Group: Металариец
Posts: 3,106
Releases: 9
From: Dnipro
On Forums: 12 years 4 weeks
Thanks: 1054 time(s)
Ukraine


Это зачетные чуваки, прошлый полноформат просто на ура.


Thanks:
Go to the top of the page
  Insert nick Quick quote
+Quote Post
post Aug 5 2020, 07:56:08
Post #3

hearer & reader
**************
Group: Металариец
Posts: 8,869
Releases: 145
From: Moscow
On Forums: 12 years 11 months
Thanks: 9141 time(s)
Russian Federation


Register


Thanks:
(1) isvili,
Go to the top of the page
  Insert nick Quick quote
+Quote Post
post Aug 7 2020, 02:13:37
Post #4

Ъ
**************
Group: Металариец
Posts: 10,177
Releases: 9
On Forums: 11 years 7 months
Thanks: 2052 time(s)
Sweden


Не съедобный вышел винегрет, да и МДМа здесь нет.


Thanks:
(1) Metalass,
Go to the top of the page
  Insert nick Quick quote
+Quote Post
post Today, 13:22:11
Post #5

Четыре Литра
****
Group: Металариец
Posts: 323
Releases: 0
On Forums: 13 years 3 months
Thanks: 219 time(s)
Russian Federation


предыдущий вроде лучше был
Go to the top of the page
  Insert nick Quick quote
+Quote Post
post Today, 19:52:38
Post #6

Четыре Литра
****
Group: Металариец
Posts: 350
Releases: 0
From: Лыткарино
On Forums: 1 year 3 months
Thanks: 83 time(s)
Russian Federation


ЦИТАТА(DenisKov @ Aug 7 2020, 06:13:37) *
Не съедобный вышел винегрет, да и МДМа здесь нет.

Именно, что винегрет, ничего так и не зацепило на альбоме.
Go to the top of the page
  Insert nick Quick quote
+Quote Post

Reply to this topicStart new topic
2 User(s) are reading this topic (2 Guests and 0 Anonymous Users)
0 Members:

 



- Lo-Fi Version Support form
Copyrights and abuse reports form
Time is now: 11th August 2020 - 22:51:00