Welcome Guest ( Log In | Register )

> Releases Upload / Добавление релизов

Добавить релиз тут / Click here to add release
Рекомендованные обменники / Recommended file shares

> Sunvher - Sunvher (2020), Post-Black Metal
post Jul 31 2020, 12:46:04
Post #1

Время Мары
**************
Group: Металариец
Posts: 3,164
Releases: 442
From: Харьков
On Forums: 11 years 2 months
Thanks: 8987 time(s)
Ukraine


(IMG:http://metalarea.org/images/audiocovers/2020_Jul/acov_tid340290_thumb.jpg)

*Artist: Sunvher
*Album: Sunvher
*Year: 2020
*Genre: Post-Black Metal
*Country: Chile (IMG:http://metalarea.org/forum/style_images/flags/Chile.png)
*Format: mp3@CBR320kbps
*Size: 114MB

Tracklist:
01. Just For Tonight
02. Broken Clocks
03. Unsatisfied
04. Hunger
05. Stored In The Ether
06. Eternal Moult
07. The Earth Weight
08. When Winter Died
09. Glows Again
******************************
Total playing time: 49:38

Technical info
(IMG:http://metalarea.org/images/spectrogram/2020_Jul/97d0c1b7eeb8630f02a31b436c74b6c3.png)
Input File: 07. The Earth Weight.mp3
Channels : 2
Sample Rate : 44100
Precision : 16-bit
Duration : 00:05:12.08 = 13762684 samples = 23405.9 CDDA sectors
File Size : 12.6M
Bit Rate : 322k
Sample Encoding: MPEG audio (layer I, II or III)
Comments :
Title=The Earth Weight
Artist=Sunvher
Album=Sunvher
Tracknumber=7/9
Year=2020
Genre=17
Discnumber=1/1



Register


Go to the top of the page
  Insert nick Quick quote
+Quote Post
 
Start new topic
Replies (1 - 2)
post Aug 5 2020, 17:21:58
Post #2

my church is black
*********
Group: Металариец
Posts: 978
Releases: 3
On Forums: 3 years 2 months
Thanks: 615 time(s)
Cape Verde


сунь в хep? хорошая попытка, Нейж

p.s. меня глючит, или на вокале какой-то булькающий эффект прослушивается?
Go to the top of the page
  Insert nick Quick quote
+Quote Post
post Aug 6 2020, 15:05:04
Post #3

Четыре Литра
****
Group: Металариец
Posts: 349
Releases: 0
From: Лыткарино
On Forums: 1 year 3 months
Thanks: 83 time(s)
Russian Federation


Очень хороший атмосферный блэк с акцентированными красивыми мелодиями. Чистый вокал только местами мешает.
Go to the top of the page
  Insert nick Quick quote
+Quote Post

Reply to this topicStart new topic
1 User(s) are reading this topic (1 Guests and 0 Anonymous Users)
0 Members:

 



- Lo-Fi Version Support form
Copyrights and abuse reports form
Time is now: 11th August 2020 - 16:25:37