Welcome Guest ( Log In | Register )

> Releases Upload / Добавление релизов

Добавить релиз тут / Click here to add release
Рекомендованные обменники / Recommended file shares

 
Reply to this topicStart new topic
> Exortta - Tempus (2020), Symphonic Black/Doom Metal
post Jul 31 2020, 12:52:02
Post #1

Правь статус, ####!111
**************
Group: Металариец
Posts: 22,673
Releases: 15764
From: Г.Харьков
On Forums: 8 years 3 months
Thanks: 290376 time(s)
Unknown


(IMG:https://metalarea.org/images/audiocovers/2020_Jul/acov_tid340291_thumb.jpg)

*Artist: Exortta
*Album: Tempus
*Year: 2020
*Genre: Symphonic Black/Doom Metal
*Country: Brazil (IMG:https://metalarea.org/forum/style_images/flags/Brazil.png)
*Format: mp3@CBR320kbps
*Size: 79MB

Tracklist:
1. An Odyssey in the Darkness 05:22
2. The Ancient Prophecies 05:14
3. Ezekiel 04:39
4. Unfailing 02:44
5. Under the Light of the Red Moon 05:14
6. Crucial Moment 04:40
7. Suffering and Blood 06:27
******************************
Total playing time: 34:20




Extended info
Leo Gandra Bass
Alex Soares Drums
André Gandra Guitars
Marcus Vinícius Guitars, Vocals
Daniela Álvares Keyboards, Vocals


Technical info
(IMG:https://metalarea.org/images/spectrogram/2020_Jul/e2caacd93db777f49a1e79ff85e1237a.png)
Input File: 05 - Under the Light of the Red Moon.mp3
Channels : 2
Sample Rate : 44100
Precision : 16-bit
Duration : 00:05:14.14 = 13853530 samples = 23560.4 CDDA sectors
File Size : 12.7M
Bit Rate : 324k
Sample Encoding: MPEG audio (layer I, II or III)
Comments :
Title=Under the Light of the Red Moon
Artist=Exortta
Album=Tempus
Tracknumber=5
Year=2020



Register


Go to the top of the page
  Insert nick Quick quote
+Quote Post

Reply to this topicStart new topic
1 User(s) are reading this topic (1 Guests and 0 Anonymous Users)
0 Members:

 



- Lo-Fi Version Support form
Copyrights and abuse reports form
Time is now: 11th August 2020 - 17:20:12