Welcome Guest ( Log In | Register )

> Releases Upload / Добавление релизов

Добавить релиз тут / Click here to add release
Рекомендованные обменники / Recommended file shares

> Ben Dallas - Epic Metal Time (2020), Instrumental Melodic Death Metal
post Jul 31 2020, 12:53:38
Post #1

Правь статус, ####!111
**************
Group: Металариец
Posts: 6,526
Releases: 6012
From: Lithuania
On Forums: 13 years 10 months
Thanks: 45368 time(s)
Lithuania


(IMG:https://metalarea.org/images/audiocovers/2020_Jul/acov_tid340292_thumb.jpg)

*Artist: Ben Dallas
*Album: Epic Metal Time
*Year: 2020
*Genre: Instrumental Melodic Death Metal
*Country: United States (IMG:https://metalarea.org/forum/style_images/flags/United%20States.png)
*Format: mp3@CBR320kbps
*Size: 109MB

Tracklist:
1. Valhalla 05:39
2. The Emissary 04:54
3. Peshmerga 03:58
4. Limbic Loop 05:30
5. Seafarer 03:12
6. Metalie 02:11
7. Elon's Musk 03:11
8. Olmec 05:10
9. Doomsayer 05:22
10. Spaghettified 08:17
******************************
Total playing time: 47:24



Technical info
(IMG:https://metalarea.org/images/spectrogram/2020_Jul/fd552b75ba9b804d7774f63121b58d4c.png)
Input File: 03. Peshmerga.mp3
Channels : 2
Sample Rate : 44100
Precision : 16-bit
Duration : 00:03:58.88 = 10534608 samples = 17916 CDDA sectors
File Size : 9.63M
Bit Rate : 323k
Sample Encoding: MPEG audio (layer I, II or III)
Comments :
Title=Peshmerga
Artist=Ben Dallas
Album=Epic Metal Time
Tracknumber=3/10
Year=2020
Genre=9
Discnumber=1/1



Register


Go to the top of the page
  Insert nick Quick quote
+Quote Post
 
Start new topic
Replies (1 - 2)
post Jul 31 2020, 22:35:16
Post #2

melofags sniper
**************
Group: Металариец
Posts: 5,363
Releases: 0
On Forums: 12 years 5 months
Thanks: 4563 time(s)
Unknown


The side project of KorbenDallas.


Go to the top of the page
  Insert nick Quick quote
+Quote Post
post Aug 1 2020, 06:31:11
Post #3

Два Литра
**
Group: Завсегдатай
Posts: 107
Releases: 0
From: Москва
On Forums: 13 years 9 months
Thanks: 28 time(s)
Russian Federation


11. Lilu Dallas Multipass. (IMG:style_emoticons/default/5.gif)
Go to the top of the page
  Insert nick Quick quote
+Quote Post

Reply to this topicStart new topic
1 User(s) are reading this topic (1 Guests and 0 Anonymous Users)
0 Members:

 



- Lo-Fi Version Support form
Copyrights and abuse reports form
Time is now: 11th August 2020 - 16:36:33