Welcome Guest ( Log In | Register )

> Releases Upload / Добавление релизов

Добавить релиз тут / Click here to add release
Рекомендованные обменники / Recommended file shares

 
Reply to this topicStart new topic
> Ænigmatum - Adorned In Wrath [demo] (2020), Black/Death Metal
post Jul 31 2020, 13:22:42
Post #1

Serial Uploader
Group Icon
Group: V.I.P
Posts: 37,277
Releases: 35458
From: Lithuania
On Forums: 12 years 1 month
Thanks: 422460 time(s)
Lithuania


(IMG:https://metalarea.org/images/audiocovers/2020_Jul/acov_tid340293_thumb.jpg)

*Artist: Ænigmatum
*Album: Adorned In Wrath [demo]
*Year: 2020
*Genre: Black/Death Metal
*Country: United States (IMG:https://metalarea.org/forum/style_images/flags/United%20States.png)
*Format: mp3@CBR320kbps
*Size: 29MB

Tracklist:
01. Despot of Amorphic Dominions 06:33
02. Disenthralled 05:33
******************************
Total playing time: 12:06



(IMG:https://metalarea.org/images/youtube.png)

Technical info
(IMG:https://metalarea.org/images/spectrogram/2020_Jul/5f0cb6d35d1a2d907c0b6550427fae49.png)
Input File: 02. Disenthralled.mp3
Channels : 2
Sample Rate : 44100
Precision : 16-bit
Duration : 00:05:33.08 = 14688916 samples = 24981.1 CDDA sectors
File Size : 13.7M
Bit Rate : 328k
Sample Encoding: MPEG audio (layer I, II or III)
Comments :
Title=Disenthralled
Artist=Ænigmatum
Album=Adorned in Wrath
Tracknumber=02
Year=2020



Register


Go to the top of the page
  Insert nick Quick quote
+Quote Post

Reply to this topicStart new topic
1 User(s) are reading this topic (1 Guests and 0 Anonymous Users)
0 Members:

 



- Lo-Fi Version Support form
Copyrights and abuse reports form
Time is now: 5th August 2020 - 12:14:21