Welcome Guest ( Log In | Register )

> Releases Upload / Добавление релизов

Добавить релиз тут / Click here to add release
Рекомендованные обменники / Recommended file shares

 
Reply to this topicStart new topic
> Westbrook - Northland (2020), Atmospheric Black/Folk Metal
post Jul 31 2020, 14:25:17
Post #1

Маньяк
**********
Group: Металариец
Posts: 1,377
Releases: 234
On Forums: 11 years 8 months
Thanks: 4804 time(s)
Russian Federation


(IMG:http://metalarea.org/images/audiocovers/2020_Jul/acov_tid340297_thumb.jpg)

*Artist: Westbrook
*Album: Northland
*Year: 2020
*Genre: Atmospheric Black/Folk Metal
*Country: United States (IMG:http://metalarea.org/forum/style_images/flags/United%20States.png)
*Format: mp3@CBR320kbps
*Size: 91MB

Tracklist:
01. Northland 04:13
02. Cold North Wind 04:32
03. The Winter 04:25
04. Death March 03:57
05. Kiss of Death 04:15
06. The 18th of December 04:47
07. Perfectly You 05:51
08. Still Heartbeats Linger 07:33
******************************
Total playing time: 39:33



Extended info






Members:
Dakota Westbrook - Guitars, bass, Drums, Vocals
Misty Lawless - Songwriting, Vocals, Manager, Promoter.

Influence:
Mayhem, Emperor, November Doom, Enslaved, Graveland, Burzum, Septic Flesh, Cradle of Filth


Technical info
(IMG:http://metalarea.org/images/spectrogram/2020_Jul/564ea1fbb51a47f06d6e0f073c633fbb.png)
Input File: 02-Cold North Wind.mp3
Channels : 2
Sample Rate : 44100
Precision : 16-bit
Duration : 00:04:32.64 = 12023292 samples = 20447.8 CDDA sectors
File Size : 10.9M
Bit Rate : 320k
Sample Encoding: MPEG audio (layer I, II or III)
Comments :
Title=Cold North Wind
Artist=Westbrook
Album=Northland
Tracknumber=2
Year=2020
Genre=Atmospheric Black/Folk Metal



Register


Go to the top of the page
  Insert nick Quick quote
+Quote Post

Reply to this topicStart new topic
2 User(s) are reading this topic (2 Guests and 0 Anonymous Users)
0 Members:

 



- Lo-Fi Version Support form
Copyrights and abuse reports form
Time is now: 11th August 2020 - 22:55:02