Welcome Guest ( Log In | Register )

> Releases Upload / Добавление релизов

Добавить релиз тут / Click here to add release
Рекомендованные обменники / Recommended file shares

 
Reply to this topicStart new topic
> Morbit - Born In Dense Forests [demo] (1996), Death Metal (D5)
post Jul 31 2020, 14:55:16
Post #1

Сволочь обыкновенная
**************
Group: Металариец
Posts: 2,645
Releases: 147
From: Брест
On Forums: 12 years 3 months
Thanks: 3494 time(s)
Belarus


(IMG:https://metalarea.org/images/audiocovers/2020_Jul/acov_tid340298_thumb.jpg)

*Artist: Morbit
*Album: Born In Dense Forests [demo]
*Year: 1996
*Genre: Death Metal
*Country: Russian Federation (IMG:https://metalarea.org/forum/style_images/flags/Russian%20Federation.png)
*Format: mp3@CBR320kbps
*Size: 54MB

Tracklist:
01. Intro - Thor Fulminater (05:11)
02. Born In Dense Forests (5:28)
03. Twilight (1:56)
04. Drapa - Outro (10:30)
******************************
Total playing time: 23:05

Extended info
Долго искал и, наконец, случайно нашел это demo в сети.
Качество более чем приемлемое для такого рода продукта.
Для любителей постсоветского death metal с кучей лирических вставок и женского вокала и тех кто знаком с творчеством Morbit
Коврики в комплекте.


Technical info
(IMG:https://metalarea.org/images/spectrogram/2020_Jul/65284a5eb7fa361b5c8177eb3020927b.png)
Input File: 01 - Morbit - Intro - Thor Fulminater.mp3
Channels : 2
Sample Rate : 44100
Precision : 16-bit
Duration : 00:05:11.78 = 13749454 samples = 23383.4 CDDA sectors
File Size : 12.5M
Bit Rate : 320k
Sample Encoding: MPEG audio (layer I, II or III)
Comments :
Title=Intro - Thor Fulminater
Artist=Morbit
Album=Born In Dense Forest
Tracknumber=01
Year=1996
Genre=Metal



Register


Go to the top of the page
  Insert nick Quick quote
+Quote Post

Reply to this topicStart new topic
1 User(s) are reading this topic (1 Guests and 0 Anonymous Users)
0 Members:

 



- Lo-Fi Version Support form
Copyrights and abuse reports form
Time is now: 5th August 2020 - 11:47:40