Welcome Guest ( Log In | Register )

> Releases Upload / Добавление релизов

Добавить релиз тут / Click here to add release
Рекомендованные обменники / Recommended file shares

 
Reply to this topicStart new topic
> Night Fighter - Unholy Sepulchre (2020), Speed Metal
post Jul 31 2020, 15:37:03
Post #1

Три Литра
***
Group: Завсегдатай
Posts: 292
Releases: 177
On Forums: 11 years 5 months
Thanks: 1923 time(s)
Russian Federation


(IMG:https://metalarea.org/images/audiocovers/2020_Jul/acov_tid340299_thumb.jpg)

*Artist: Night Fighter
*Album: Unholy Sepulchre
*Year: 2020
*Genre: Speed Metal
*Country: United Kingdom (IMG:https://metalarea.org/forum/style_images/flags/United%20Kingdom.png)
*Format: mp3@CBR320kbps
*Size: 66MB

Tracklist:
01. Unholy Sepulchre 03:58
02. Hell Thrashing Savagery 03:42
03. Traitor's Grave 03:45
04. Leather Offender 03:21
05. Beerhammer 04:38
06. Barbaric Cruelty 03:52
07. Live Hard Die Hard 03:37
08. High Speed Hell 02:13
******************************
Total playing time: 29:06



Technical info
(IMG:https://metalarea.org/images/spectrogram/2020_Jul/1a7237825f89057553ae8c57757c1153.png)
Input File: 02 - Hell Thrashing Savagery.mp3
Channels : 2
Sample Rate : 44100
Precision : 16-bit
Duration : 00:03:42.44 = 9809560 samples = 16682.9 CDDA sectors
File Size : 8.90M
Bit Rate : 320k
Sample Encoding: MPEG audio (layer I, II or III)
Comments :
Title=Hell Thrashing Savagery
Artist=NIGHT FIGHTER
Album=Unholy Sepulchre
Tracknumber=2
Year=2020



Register


Go to the top of the page
  Insert nick Quick quote
+Quote Post

Reply to this topicStart new topic
1 User(s) are reading this topic (1 Guests and 0 Anonymous Users)
0 Members:

 



- Lo-Fi Version Support form
Copyrights and abuse reports form
Time is now: 5th August 2020 - 11:01:45