Welcome Guest ( Log In | Register )

> Releases Upload / Добавление релизов

Добавить релиз тут / Click here to add release
Рекомендованные обменники / Recommended file shares

> Diabhal - M M X X (2020), Death Metal
post Aug 1 2020, 08:25:29
Post #1

Правь статус, ####!111
**************
Group: Металариец
Posts: 22,674
Releases: 15764
From: Г.Харьков
On Forums: 8 years 3 months
Thanks: 290421 time(s)
Unknown


(IMG:https://metalarea.org/images/audiocovers/2020_Aug/acov_tid340304_thumb.jpg)

*Artist: Diabhal
*Album: M M X X
*Year: 2020
*Genre: Death Metal
*Country: United States (IMG:https://metalarea.org/forum/style_images/flags/United%20States.png)
*Format: mp3@CBR320kbps
*Size: 88MB

Tracklist:
01. Vermin Plague
02. Savage
03. Crawl
04. Necromancer
05. Homicide
06. Oblivion
07. Bloodletting
08. Famine
09. Neckbreaker
10. Omnificent
11. Scalpel
12. The Suffering (Baphomet Cover)
******************************
Total playing time: 36:33




Extended info
Tameem Shaker - Vocals, Guitar
Miguel Rodriguez - Guitar
Jonathan Rizzo - Bass
Ricky Rizzo - Drums



Technical info
(IMG:https://metalarea.org/images/spectrogram/2020_Aug/ffea18f838faa76133a31f7fd8595747.png)
Input File: 06. Oblivion.mp3
Channels : 2
Sample Rate : 44100
Precision : 16-bit
Duration : 00:04:09.23 = 10990823 samples = 18691.9 CDDA sectors
File Size : 10.4M
Bit Rate : 333k
Sample Encoding: MPEG audio (layer I, II or III)
Comments :
Title=Oblivion
Artist=Diabhal
Album=M M X X
Tracknumber=06
Year=2020
Genre=|Death



Register


Go to the top of the page
  Insert nick Quick quote
+Quote Post
 
Start new topic
Replies (1 - 1)
post Aug 2 2020, 04:48:09
Post #2

hearer & reader
**************
Group: Металариец
Posts: 8,869
Releases: 145
From: Moscow
On Forums: 12 years 11 months
Thanks: 9141 time(s)
Russian Federation


Register


Thanks:
(1) Olethros,
Go to the top of the page
  Insert nick Quick quote
+Quote Post

Reply to this topicStart new topic
2 User(s) are reading this topic (2 Guests and 0 Anonymous Users)
0 Members:

 



- Lo-Fi Version Support form
Copyrights and abuse reports form
Time is now: 11th August 2020 - 22:54:28