Welcome Guest ( Log In | Register )

> Releases Upload / Добавление релизов

Добавить релиз тут / Click here to add release
Рекомендованные обменники / Recommended file shares

> Laceratory - Extermination Of The Dissidents (2020), Brutal Death Metal
post Aug 1 2020, 08:47:07
Post #1

Правь статус, ####!111
**************
Group: Металариец
Posts: 22,673
Releases: 15764
From: Г.Харьков
On Forums: 8 years 3 months
Thanks: 290374 time(s)
Unknown


(IMG:https://metalarea.org/images/audiocovers/2020_Aug/acov_tid340305_thumb.jpg)

*Artist: Laceratory
*Album: Extermination Of The Dissidents
*Year: 2020
*Genre: Brutal Death Metal
*Country: International (IMG:https://metalarea.org/forum/style_images/flags/International.png)
*Format: mp3@CBR320kbps
*Size: 74MB

Tracklist:
01. Bathed in Entrails
02. Perverse Sickness
03. Extermination of the Dissidents
04. Slice the Throat of the Rapist
05. King of the Maggots
06. Peripheral Slaughter
07. Blood Infestation
08. Intestinal Engorgement
******************************
Total playing time: 32:11




Extended info
USA / New Zealand / Spain
John - Vocals (Chalice of Suffering, Solemn Echoes)
Eric Ogar Baumgard - Drums (Septicemic, Face of Oblivion, Glutton for Punishment)
Rod - Guitars (Arthropodal Humanicide, Putreseminal Viscosity, Scrumptious Putrescence)
Bones Burlace - Guitars (Disembowling the Limbless)
Samgar Ragmas - Bass (Kryptococcus, Antipathy, Imminent Peril)


Technical info
(IMG:https://metalarea.org/images/spectrogram/2020_Aug/b845951c0e032ea0d8bfd082aeea5957.png)
Input File: 04. Slice the Throat of the Rapist.mp3
Channels : 2
Sample Rate : 44100
Precision : 16-bit
Duration : 00:04:07.61 = 10919381 samples = 18570.4 CDDA sectors
File Size : 9.91M
Bit Rate : 320k
Sample Encoding: MPEG audio (layer I, II or III)
Comments :
Title=Slice the Throat of the Rapist
Artist=Laceratory
Album=Extermination of the Dissidents
Tracknumber=4
Year=2020



Register


Go to the top of the page
  Insert nick Quick quote
+Quote Post
 
Start new topic
Replies (1 - 1)
post Aug 2 2020, 04:40:36
Post #2

hearer & reader
**************
Group: Металариец
Posts: 8,869
Releases: 145
From: Moscow
On Forums: 12 years 11 months
Thanks: 9141 time(s)
Russian Federation


https://music.yandex.ru/album/11412303
not bad
Register


Thanks:
(1) Olethros,
Go to the top of the page
  Insert nick Quick quote
+Quote Post

Reply to this topicStart new topic
1 User(s) are reading this topic (1 Guests and 0 Anonymous Users)
0 Members:

 



- Lo-Fi Version Support form
Copyrights and abuse reports form
Time is now: 11th August 2020 - 17:04:43