Welcome Guest ( Log In | Register )

> Releases Upload / Добавление релизов

Добавить релиз тут / Click here to add release
Рекомендованные обменники / Recommended file shares

 
Reply to this topicStart new topic
> Vomitheist - Sinister Leader Of The Vomit Cult [ep] (2020), Old School Death Metal
post Aug 1 2020, 09:26:33
Post #1

Правь статус, ####!111
**************
Group: Металариец
Posts: 22,674
Releases: 15764
From: Г.Харьков
On Forums: 8 years 3 months
Thanks: 290416 time(s)
Unknown


(IMG:https://metalarea.org/images/audiocovers/2020_Aug/acov_tid340307_thumb.jpg)

*Artist: Vomitheist
*Album: Sinister Leader Of The Vomit Cult [ep]
*Year: 2020
*Genre: Old School Death Metal
*Country: Switzerland (IMG:https://metalarea.org/forum/style_images/flags/Switzerland.png)
*Format: mp3@CBR320kbps
*Size: 38MB

Tracklist:
1. Strangled by Entrails 03:59
2. Tormenting Fungal Infestation 05:37
3. Epidemic Disembowelment 04:55
4. NekroFvneral 01:42
******************************
Total playing time: 16:13




Extended info
Gubler Bass, Vocals (2013-present)
See also: ex-Battalion
Wöhrle Drums (2013-present)
Yänä Guitars (2013-present)
See also: ex-Behind Enemy Lines, ex-All Life Ends


Technical info
(IMG:https://metalarea.org/images/spectrogram/2020_Aug/ab5cd2426304b3e3973aef2f81080bf7.png)
Input File: Vomitheist - Sinister Leader Of The Vomit Cult - 02 Tormenting Fungal Infestation.mp3
Channels : 2
Sample Rate : 44100
Precision : 16-bit
Duration : 00:05:38.07 = 14908843 samples = 25355.2 CDDA sectors
File Size : 13.7M
Bit Rate : 324k
Sample Encoding: MPEG audio (layer I, II or III)
Comments :
Title=Tormenting Fungal Infestation
Artist=Vomitheist
Album=Sinister Leader Of The Vomit Cult
Tracknumber=2
Year=2020



Register


Go to the top of the page
  Insert nick Quick quote
+Quote Post

Reply to this topicStart new topic
2 User(s) are reading this topic (2 Guests and 0 Anonymous Users)
0 Members:

 



- Lo-Fi Version Support form
Copyrights and abuse reports form
Time is now: 11th August 2020 - 22:26:45