Welcome Guest ( Log In | Register )

> Releases Upload / Добавление релизов

Добавить релиз тут / Click here to add release
Рекомендованные обменники / Recommended file shares

 
Reply to this topicStart new topic
> Moulderyawn - ...And What Lie 'neath Its Shade (2020), Black Metal/Ambient
post Aug 1 2020, 09:47:27
Post #1

Правь статус, ####!111
**************
Group: Металариец
Posts: 22,674
Releases: 15764
From: Г.Харьков
On Forums: 8 years 3 months
Thanks: 290416 time(s)
Unknown


(IMG:https://metalarea.org/images/audiocovers/2020_Aug/acov_tid340308_thumb.jpg)

*Artist: Moulderyawn
*Album: ...And What Lie 'neath Its Shade
*Year: 2020
*Genre: Black Metal/Ambient
*Country: United States (IMG:https://metalarea.org/forum/style_images/flags/United%20States.png)
*Format: mp3@CBR320kbps
*Size: 111MB

Tracklist:
1. Mildewed Morn 04:52
2. Who Hath Dreamt Enchanted Dream 07:57
3. Moulderyawn; A Spell To Entwine Life & Death 09:40
4. Passage 04:58
5. The Everwood & What Lie 'Neath its Shade 13:39
6. Singing Mushrooms 07:44
******************************
Total playing time: 48:50




Extended info
Aldersop Everything


Technical info
(IMG:https://metalarea.org/images/spectrogram/2020_Aug/a860252db9ebfccc7bf67bca8f3e83c6.png)
Input File: 05 - The Everwood & What Lie \'Neath Its Shade.mp3
Channels : 2
Sample Rate : 44100
Precision : 16-bit
Duration : 00:13:39.43 = 36136775 samples = 61457.1 CDDA sectors
File Size : 33.0M
Bit Rate : 322k
Sample Encoding: MPEG audio (layer I, II or III)
Comments :
Title=The Everwood & What Lie 'Neath Its Shade
Artist=Moulderyawn
Album=...And What Lie 'Neath its Shade
Tracknumber=5
Year=2020



Register


Go to the top of the page
  Insert nick Quick quote
+Quote Post

Reply to this topicStart new topic
1 User(s) are reading this topic (1 Guests and 0 Anonymous Users)
0 Members:

 



- Lo-Fi Version Support form
Copyrights and abuse reports form
Time is now: 11th August 2020 - 22:31:19