Welcome Guest ( Log In | Register )

> Releases Upload / Добавление релизов

Добавить релиз тут / Click here to add release
Рекомендованные обменники / Recommended file shares

> Rusted Coins - Tales (2020), Heavy Metal
post Aug 1 2020, 10:11:52
Post #1

Правь статус, ####!111
**************
Group: Металариец
Posts: 22,674
Releases: 15764
From: Г.Харьков
On Forums: 8 years 3 months
Thanks: 290416 time(s)
Unknown


(IMG:https://metalarea.org/images/audiocovers/2020_Aug/acov_tid340309_thumb.jpg)

*Artist: Rusted Coins
*Album: Tales
*Year: 2020
*Genre: Heavy Metal
*Country: Italy (IMG:https://metalarea.org/forum/style_images/flags/Italy.png)
*Format: mp3@CBR320kbps
*Size: 125MB

Tracklist:
1. Fix Myself
2. Raise Your Voice
3. Black Devil
4. Riot
5. Lighthouse
6. Like This
7. Who Rises Will Fall
8. Build It Up
9. Antidote
10. My Hate
******************************
Total playing time: 54:21



Extended info
Julian "Nuns" Rassler Guitars
Florian "Flöör" Malleier Guitars
Klemens "Clemente" Tschenett Drums (2015-present)
Markus "Letti" Letschka Vocals (2015-present)
Kurt "Kutte" Mair Bass (2017-present)


Technical info
(IMG:https://metalarea.org/images/spectrogram/2020_Aug/cd0c657cd96d64c27925f2628ced1f77.png)
Input File: 05 - Lighthouse.mp3
Channels : 2
Sample Rate : 44100
Precision : 16-bit
Duration : 00:04:49.45 = 12764833 samples = 21708.9 CDDA sectors
File Size : 11.7M
Bit Rate : 322k
Sample Encoding: MPEG audio (layer I, II or III)
Comments :
Title=Lighthouse
Artist=Rusted Coins
Album=Tales
Tracknumber=5
Year=2020



Register


Go to the top of the page
  Insert nick Quick quote
+Quote Post
 
Start new topic
Replies (1 - 1)
post Aug 2 2020, 11:30:51
Post #2

Совки, гулаги, дефициты
***********
Group: Металариец
Posts: 1,689
Releases: 0
From: Беларусь, Минск
On Forums: 13 years 1 month
Thanks: 834 time(s)
Belarus


Слишком гламурно.
Go to the top of the page
  Insert nick Quick quote
+Quote Post

Reply to this topicStart new topic
2 User(s) are reading this topic (2 Guests and 0 Anonymous Users)
0 Members:

 



- Lo-Fi Version Support form
Copyrights and abuse reports form
Time is now: 11th August 2020 - 22:41:09