Welcome Guest ( Log In | Register )

> Releases Upload / Добавление релизов

Добавить релиз тут / Click here to add release
Рекомендованные обменники / Recommended file shares

> Apotropaico - Under Control (2020), Heavy/Thrash Metal
post Aug 1 2020, 10:27:51
Post #1

Правь статус, ####!111
**************
Group: Металариец
Posts: 22,674
Releases: 15764
From: Г.Харьков
On Forums: 8 years 3 months
Thanks: 290420 time(s)
Unknown


(IMG:https://metalarea.org/images/audiocovers/2020_Aug/acov_tid340310_thumb.jpg)

*Artist: Apotropaico
*Album: Under Control
*Year: 2020
*Genre: Heavy/Thrash Metal
*Country: Spain (IMG:https://metalarea.org/forum/style_images/flags/Spain.png)
*Format: mp3@CBR320kbps
*Size: 97MB

Tracklist:
1. Party of Death 04:57
2. Club 27 04:40
3. Voice of Power 04:42
4. Something to Say 03:20
5. Piss Me Off 04:47
6. The Hunters 05:35
7. Under Control 04:08
8. It's Thrash, Not Fucking Trash 04:21
9. Walking Out of Real 05:31
******************************
Total playing time: 42:01




Extended info
Matteo Bass
Batitoni Drums, Vocals (backing)
Manda Guitars, Vocals (backing)
Dani Guitars, Vocals (backing)
Kiaro Vocals (lead)



Technical info
(IMG:https://metalarea.org/images/spectrogram/2020_Aug/366672d6fcd88a4853663e021bc1088b.png)
Input File: 05 - Piss Me Off.mp3
Channels : 2
Sample Rate : 44100
Precision : 16-bit
Duration : 00:04:46.47 = 12633503 samples = 21485.5 CDDA sectors
File Size : 11.6M
Bit Rate : 323k
Sample Encoding: MPEG audio (layer I, II or III)
Comments :
Title=Piss Me Off
Artist=Apotropaico
Album=Under Control
Tracknumber=5
Year=2020



Register


Go to the top of the page
  Insert nick Quick quote
+Quote Post
 
Start new topic
Replies (1 - 1)
post Aug 3 2020, 05:50:01
Post #2

Четыре Литра
****
Group: Металариец
Posts: 361
Releases: 0
From: Ташкент
On Forums: 12 years 6 months
Thanks: 104 time(s)
Uzbekistan


А неплохой, кстати, музон.
Не всё на Ибице электроника, к счастью )))


Thanks:
Go to the top of the page
  Insert nick Quick quote
+Quote Post

Reply to this topicStart new topic
2 User(s) are reading this topic (2 Guests and 0 Anonymous Users)
0 Members:

 



- Lo-Fi Version Support form
Copyrights and abuse reports form
Time is now: 11th August 2020 - 22:52:11