Welcome Guest ( Log In | Register )

> Releases Upload / Добавление релизов

Добавить релиз тут / Click here to add release
Рекомендованные обменники / Recommended file shares

> Molde Volhal - Into The Cave Of Ordeals... [ep] (2020), Melodic Black Metal
post Aug 1 2020, 10:30:38
Post #1

Правь статус, ####!111
**************
Group: Металариец
Posts: 3,106
Releases: 9
From: Dnipro
On Forums: 12 years 4 weeks
Thanks: 1054 time(s)
Ukraine


(IMG:http://metalarea.org/images/audiocovers/2020_Aug/acov_tid340311_thumb.jpg)

*Artist: Molde Volhal
*Album: Into The Cave Of Ordeals... [ep]
*Year: 2020
*Genre: Melodic Black Metal
*Country: Norway (IMG:http://metalarea.org/forum/style_images/flags/Norway.png)
*Format: mp3@CBR192kbps
*Size: 40MB

Tracklist:
01. Into the Cave of Ordeals... 07:00
02. Beyond the Red Horizons of a Thousand Battles 05:51
03. Through Everlasting Halls (Triumphant Return to The Keep of Moldé Volhal) 05:57
04. In the Land Where Frozen Rivers Meet.. 02:46
05. Moldé Volhal 06:31
******************************
Total playing time: 28:05



Extended info
Обязателен к ознакомлению для всех поклонников стиля Melodic Black Metal


Technical info
(IMG:http://metalarea.org/images/spectrogram/2020_Aug/2daabaf99eec30aacb59a6ee3e1e48b1.png)
Input File: 02. Beyond The Red Horizons of a Thousand Battles.mp3
Channels : 2
Sample Rate : 44100
Precision : 16-bit
Duration : 00:05:51.62 = 15506442 samples = 26371.5 CDDA sectors
File Size : 8.63M
Bit Rate : 196k
Sample Encoding: MPEG audio (layer I, II or III)
Comments :
Title=Beyond The Red Horizons of a Thousand Battles
Artist=Molde Volhal
Album=Into the Cave of Ordeals​.​.​
Year=2020
Genre=Black Metal



Register


Go to the top of the page
  Insert nick Quick quote
+Quote Post
 
Start new topic
Replies (1 - 1)
post Aug 2 2020, 08:58:37
Post #2

Маньяк
**********
Group: Металариец
Posts: 1,330
Releases: 0
From: Russian Federation - St.Petersburg
On Forums: 11 years 5 months
Thanks: 337 time(s)
Russian Federation


Чёт все треки, как под одну гребёнку! (IMG:style_emoticons/default/hmm.gif)
Go to the top of the page
  Insert nick Quick quote
+Quote Post

Reply to this topicStart new topic
2 User(s) are reading this topic (2 Guests and 0 Anonymous Users)
0 Members:

 



- Lo-Fi Version Support form
Copyrights and abuse reports form
Time is now: 11th August 2020 - 22:12:14