Welcome Guest ( Log In | Register )

> Releases Upload / Добавление релизов

Добавить релиз тут / Click here to add release
Рекомендованные обменники / Recommended file shares

 
Reply to this topicStart new topic
> Erl - Necrosterra (2020), Black Metal
post Aug 1 2020, 12:28:06
Post #1

Правь статус, ####!111
**************
Group: Металариец
Posts: 22,674
Releases: 15764
From: Г.Харьков
On Forums: 8 years 3 months
Thanks: 290427 time(s)
Unknown


(IMG:https://metalarea.org/images/audiocovers/2020_Aug/acov_tid340314_thumb.jpg)

*Artist: Erl
*Album: Necrosterra
*Year: 2020
*Genre: Black Metal
*Country: Austria (IMG:https://metalarea.org/forum/style_images/flags/Austria.png)
*Format: mp3@CBR320kbps
*Size: 149MB

Tracklist:
01. Ascension
02. Memento Mori
03. Those You Deserve
04. Necrosterra
05. Erato (Contraria)
06. Tyranizer
07. Et Nunc Et Semper
08. Celebrating the Black Cult
09. Throne of Death
10. Chanson De Tristesse II
******************************
Total playing time: 1:03:31



Extended info
Carcharoth Guitars (2011-2013), Vocals (2011-present)
See also: ex-Realm of Damnation
Prometheus Drums (2012-present)
See also: Infestus (live), ex-Wolfsthurn
Eligius Guitars (2012-present)
See also: ex-Syrus
Skarim Sidus Septentri Guitars (2013-present)
See also: Heydenrausch, ex-Portae Obscuritas
Molech Bass (2016-present)


Technical info
(IMG:https://metalarea.org/images/spectrogram/2020_Aug/416f7dff4188472d89202596e0ac3a15.png)
Input File: 04. Necrosterra.mp3
Channels : 2
Sample Rate : 44100
Precision : 16-bit
Duration : 00:08:08.08 = 21524108 samples = 36605.6 CDDA sectors
File Size : 20.0M
Bit Rate : 327k
Sample Encoding: MPEG audio (layer I, II or III)
Comments :
Title=Necrosterra
Artist=Erl
Album=Necrosterra
Tracknumber=4/10
Year=2020-20-20
Discnumber=1/1



Register


Go to the top of the page
  Insert nick Quick quote
+Quote Post

Reply to this topicStart new topic
2 User(s) are reading this topic (2 Guests and 0 Anonymous Users)
0 Members:

 



- Lo-Fi Version Support form
Copyrights and abuse reports form
Time is now: 11th August 2020 - 23:15:01