Welcome Guest ( Log In | Register )

> Releases Upload / Добавление релизов

Добавить релиз тут / Click here to add release
Рекомендованные обменники / Recommended file shares

 
Reply to this topicStart new topic
> Mortum - Atlantean Ouroboros (2020), Black Metal (D13)
post Aug 1 2020, 12:56:11
Post #1

Правь статус, ####!111
**************
Group: Металариец
Posts: 2,055
Releases: 1627
From: Praha
On Forums: 6 years 4 months
Thanks: 41808 time(s)
Czech Republic


(IMG:http://metalarea.org/images/audiocovers/2020_Aug/acov_tid340315_thumb.jpg)

*Artist: Mortum
*Album: Atlantean Ouroboros
*Year: 2020
*Genre: Black Metal
*Country: United States (IMG:http://metalarea.org/forum/style_images/flags/United%20States.png)
*Format: mp3@CBR320kbps
*Size: 100MB

Tracklist:
1. Atlantean Ouroboros 02:08
2. A Spirit Amongst Ruins 06:17
3. The Crowned Serpent Rises From The Boiling Sea 05:03
4. Macabre Incenses 04:41
5. Catacombs of Archaic Doctrines 06:01
6. Lost Forever 03:47
7. Tidal Waves Dwarf Skyscrapers 06:08
8. Mount Shasta 09:02
******************************
Total playing time: 43:07



Technical info
(IMG:http://metalarea.org/images/spectrogram/2020_Aug/bfbedea3cd478fc7d6d10301ce96dc81.png)
Input File: 02. A Spirit Amongst Ruins.mp3
Channels : 2
Sample Rate : 44100
Precision : 16-bit
Duration : 00:06:17.18 = 16633462 samples = 28288.2 CDDA sectors
File Size : 15.3M
Bit Rate : 324k
Sample Encoding: MPEG audio (layer I, II or III)
Comments :
Title=A Spirit Amongst Ruins
Artist=Mortum
Album=Atlantean Ouroboros
Tracknumber=02/08
Year=2020
Genre=Black Metal



Register


Go to the top of the page
  Insert nick Quick quote
+Quote Post

Reply to this topicStart new topic
2 User(s) are reading this topic (2 Guests and 0 Anonymous Users)
0 Members:

 



- Lo-Fi Version Support form
Copyrights and abuse reports form
Time is now: 11th August 2020 - 22:37:33