Welcome Guest ( Log In | Register )

> Releases Upload / Добавление релизов

Добавить релиз тут / Click here to add release
Рекомендованные обменники / Recommended file shares

> Veljessurma - Ritual Of Cain [demo] (2020), Raw Black Metal
post Aug 1 2020, 13:10:03
Post #1

Правь статус, ####!111
**************
Group: Металариец
Posts: 2,055
Releases: 1627
From: Praha
On Forums: 6 years 4 months
Thanks: 41814 time(s)
Czech Republic


(IMG:http://metalarea.org/images/audiocovers/2020_Aug/acov_tid340316_thumb.jpg)

*Artist: Veljessurma
*Album: Ritual Of Cain [demo]
*Year: 2020
*Genre: Raw Black Metal
*Country: Finland (IMG:http://metalarea.org/forum/style_images/flags/Finland.png)
*Format: mp3@CBR320kbps
*Size: 64MB

Tracklist:
1. Intro / Ryöstetyt 05:41
2. Loveen Langennut 05:42
3. Cainin Rituaali 08:17
4. Kosto 08:06
******************************
Total playing time: 27:46



Extended info
Azure Graal - AG04


Technical info
(IMG:http://metalarea.org/images/spectrogram/2020_Aug/34d31b14dd8be8ca3c509158ea8642ba.png)
Input File: 02. Loveen Langennut.mp3
Channels : 2
Sample Rate : 44100
Precision : 16-bit
Duration : 00:05:42.64 = 15110600 samples = 25698.3 CDDA sectors
File Size : 13.8M
Bit Rate : 321k
Sample Encoding: MPEG audio (layer I, II or III)
Comments :
Title=Loveen Langennut
Artist=Veljessurma
Album=Ritual of Cain (Demo)
Tracknumber=02/04
Year=2020
Genre=Black Metal



Register


Go to the top of the page
  Insert nick Quick quote
+Quote Post
 
Start new topic
Replies (1 - 1)
post Aug 1 2020, 18:08:13
Post #2

убивай меломанов
*********
Group: Металариец
Posts: 976
Releases: 6
On Forums: 9 years 11 months
Thanks: 1281 time(s)
Ukraine


на облоге Петри Ильвеспакка рубает терпилу
Go to the top of the page
  Insert nick Quick quote
+Quote Post

Reply to this topicStart new topic
2 User(s) are reading this topic (2 Guests and 0 Anonymous Users)
0 Members:

 



- Lo-Fi Version Support form
Copyrights and abuse reports form
Time is now: 11th August 2020 - 23:27:22