Welcome Guest ( Log In | Register )

> И неформату есть предел.

Рэп/хип-хоп/шансон/поп удаляются. Для них есть свои порталы.

> Death Alley - Superbia (2018), Hard Rock
post Aug 1 2020, 13:13:59
Post #1

убивай меломанов
**********
Group: Металариец
Posts: 1,007
Releases: 6
On Forums: 10 years 2 weeks
Thanks: 1303 time(s)
Ukraine


(IMG:https://metalarea.org/images/audiocovers/2020_Aug/acov_tid340317_thumb.jpg)

*Artist: Death Alley
*Album: Superbia
*Year: 2018
*Genre: Hard Rock
*Country: Netherlands (IMG:https://metalarea.org/forum/style_images/flags/Netherlands.png)
*Format: mp3@CBR320kbps
*Size: 117MB

Tracklist:
1. Daemon 09:10
2. The Chain 03:22
3. Feeding the Lions 07:10
4. Headlights in the Dark 06:42
5. Shake the Coil 03:46
6. Murder Your Dreams 03:02
7. Pilgrim 05:59
8. The Sewage 11:37
******************************
Total playing time: 50:48

Preview 1

Extended info
еще один осколок the devil's blood. теговать сложно, есть что-то от панка, что-то от рок-н-ролла, что-то от стонера, ну и немного психоделии.
хотя по мне - так это старая добрая харда.
есть еще альбом 15-го года, но он мне меньше нравится, поэтому я его затулю простой ссылкой в комментах.


Technical info
(IMG:https://metalarea.org/images/spectrogram/2020_Aug/f6de428a394ab36c8ddb0d0c569807bd.png)
Input File: 06. Murder Your Dreams.mp3
Channels : 2
Sample Rate : 44100
Precision : 16-bit
Duration : 00:03:02.08 = 8029860 samples = 13656.2 CDDA sectors
File Size : 7.38M
Bit Rate : 324k
Sample Encoding: MPEG audio (layer I, II or III)
Comments :
Title=Murder Your Dreams
Artist=Death Alley
Album=Superbia
Tracknumber=6/8
Year=2018
Genre=Hard Rock, Psychedelic Rock



Register


Go to the top of the page
  Insert nick Quick quote
+Quote Post
 
Start new topic
Replies (1 - 1)
post Aug 1 2020, 18:13:20
Post #2

убивай меломанов
**********
Group: Металариец
Posts: 1,007
Releases: 6
On Forums: 10 years 2 weeks
Thanks: 1303 time(s)
Ukraine


ниже ссылка на их первый альбом.
он на мой взгляд слабее следующего, хотя надо заметить, что Supernatural Predator гениальна от первой до последней ноты.

Register


(IMG:https://i.imgur.com/LrclmMH.jpg)


Thanks:
Go to the top of the page
  Insert nick Quick quote
+Quote Post

Reply to this topicStart new topic
1 User(s) are reading this topic (1 Guests and 0 Anonymous Users)
0 Members:

 



- Lo-Fi Version Support form
Copyrights and abuse reports form
Time is now: 23rd September 2020 - 21:12:35