Welcome Guest ( Log In | Register )

> Releases Upload / Добавление релизов

Добавить релиз тут / Click here to add release
Рекомендованные обменники / Recommended file shares

 
Reply to this topicStart new topic
> Cavort Usurp - Hail Nothing (2020), Black/Thrash Metal
post Aug 1 2020, 14:20:56
Post #1

Правь статус, ####!111
**************
Group: Металариец
Posts: 23,165
Releases: 16155
From: Г.Харьков
On Forums: 8 years 4 months
Thanks: 300773 time(s)
Unknown


(IMG:https://metalarea.org/images/audiocovers/2020_Aug/acov_tid340318_thumb.jpg)

*Artist: Cavort Usurp
*Album: Hail Nothing
*Year: 2020
*Genre: Black/Thrash Metal
*Country: United States (IMG:https://metalarea.org/forum/style_images/flags/United%20States.png)
*Format: mp3@CBR320kbps
*Size: 67MB

Tracklist:
1. American Apology Tour 03:22
2. Free to Obey 02:13
3. Fire in a Vacuum 02:24
4. Number Five 02:18
5. Cannibal Capital 02:28
6. Lullaby 02:16
7. Dislike 00:26
8. Golden Rule 04:33
9. Trouble 02:51
10. Doppelgänger 04:12
11. No Reason (Minor Threat cover) 01:57
******************************
Total playing time: 29:00



Extended info
Bass: Kelly Kish
Drums: Andy Burns
Guitar: Jacob Pruitt
Vocals + Lyrics: Mark Barnes


Technical info
(IMG:https://metalarea.org/images/spectrogram/2020_Aug/2185b6072ce4f71bddfc73bbe12f3e11.png)
Input File: Cavort Usurp - Hail Nothing - 10 Doppelgänger.mp3
Channels : 2
Sample Rate : 44100
Precision : 16-bit
Duration : 00:04:12.72 = 11145040 samples = 18954.1 CDDA sectors
File Size : 10.2M
Bit Rate : 323k
Sample Encoding: MPEG audio (layer I, II or III)
Comments :
Title=Doppelgänger
Artist=Cavort Usurp
Album=Hail Nothing
Tracknumber=10
Year=2020



Register


Go to the top of the page
  Insert nick Quick quote
+Quote Post

Reply to this topicStart new topic
1 User(s) are reading this topic (1 Guests and 0 Anonymous Users)
0 Members:

 



- Lo-Fi Version Support form
Copyrights and abuse reports form
Time is now: 21st September 2020 - 10:18:17