Welcome Guest ( Log In | Register )

> Releases Upload / Добавление релизов

Добавить релиз тут / Click here to add release
Рекомендованные обменники / Recommended file shares

> Pan-Amerikan Native Front - Tecumseh's War (2016), Black Metal
post Aug 1 2020, 15:44:16
Post #1

𝕻𝕬𝕹𝕬𝕮𝕰𝕬
********
Group: Металариец
Posts: 845
Releases: 492
On Forums: 8 years 2 months
Thanks: 8291 time(s)
Unknown


(IMG:https://metalarea.org/images/audiocovers/2020_Aug/acov_tid340320_thumb.jpg)

*Artist: Pan-Amerikan Native Front
*Album: Tecumseh's War
*Year: 2016
*Genre: Black Metal
*Country: United States (IMG:https://metalarea.org/forum/style_images/flags/United%20States.png)
*Format: mp3@CBR320kbps
*Size: 91MB

Tracklist:
1. Woodlands Warfare 02:36
2. Indigenous Blood Revival 05:50
3. Raising The War Club 04:37
4. Tenskwatawa 05:53
5. Tecumseh's Confederacy 06:39
6. Anti-Expansionist Diplomacy 04:43
7. Battle Of The Thames 08:08
8. Panther In The Sky 01:24
******************************
Total playing time: 39:50



Technical info
(IMG:https://metalarea.org/images/spectrogram/2020_Aug/6e9f63ea91e857ede6668fe3b529f4a5.png)
Input File: 03 - Raising The War Club.mp3
Channels : 2
Sample Rate : 44100
Precision : 16-bit
Duration : 00:04:37.66 = 12244894 samples = 20824.6 CDDA sectors
File Size : 11.1M
Bit Rate : 320k
Sample Encoding: MPEG audio (layer I, II or III)
Comments :
Title=Raising The War Club
Artist=Pan-Amerikan Native Front
Album=Tecumseh's War
Tracknumber=03
Year=2016
Genre=Black Metal



Register


Go to the top of the page
  Insert nick Quick quote
+Quote Post
 
Start new topic
Replies (1 - 1)
post Aug 3 2020, 06:33:26
Post #2

Четыре Литра
****
Group: Металариец
Posts: 317
Releases: 5
From: Самара
On Forums: 11 years 11 months
Thanks: 302 time(s)
Russian Federation


рано или поздно я всё же дождался североамериканский индейский блэк)
Go to the top of the page
  Insert nick Quick quote
+Quote Post

Reply to this topicStart new topic
2 User(s) are reading this topic (2 Guests and 0 Anonymous Users)
0 Members:

 



- Lo-Fi Version Support form
Copyrights and abuse reports form
Time is now: 11th August 2020 - 23:10:58