Welcome Guest ( Log In | Register )

> Releases Upload / Добавление релизов

Добавить релиз тут / Click here to add release
Рекомендованные обменники / Recommended file shares

> Breethoven - Le Grind Guignol [ep] (2020), Death Metal/Grindcore
post Aug 1 2020, 16:41:41
Post #1

Маньяк
**********
Group: Металариец
Posts: 1,377
Releases: 234
On Forums: 11 years 8 months
Thanks: 4804 time(s)
Russian Federation


(IMG:http://metalarea.org/images/audiocovers/2020_Aug/acov_tid340321_thumb.jpg)

*Artist: Breethoven
*Album: Le Grind Guignol [ep]
*Year: 2020
*Genre: Death Metal/Grindcore
*Country: Italy (IMG:http://metalarea.org/forum/style_images/flags/Italy.png)
*Format: mp3@CBR320kbps
*Size: 39MB

Tracklist:
01. Breentro 01:08
02. Error in Bree Flat 02:06
03. Breenterludio 00:18
04. Sonata in Bree Major 02:24
05. Inebreeatevi 02:23
06. James LaBree 01:02
07. Breecore 01:31
08. Breetushka 02:04
09. Breeless (Abbiamo finito i Bree) 02:20
10. Breeverse 00:41
******************************
Total playing time: 15:57

Preview 1
Preview 2

(IMG:http://metalarea.org/images/youtube.png)

Extended info
(IMG:https://www.metal-archives.com/images/3/5/4/0/3540456339_logo.jpg)

Lineup:
Ivano Lo Iacono Bass (2017-present)
Antonella Fiani Keyboards (2019-present)

***FLAC-Rip***


Technical info
(IMG:http://metalarea.org/images/spectrogram/2020_Aug/7629350f4917cb9345c5a187775c472f.png)
Input File: 01-Breentro.mp3
Channels : 2
Sample Rate : 44100
Precision : 16-bit
Duration : 00:01:08.08 = 3002416 samples = 5106.15 CDDA sectors
File Size : 2.73M
Bit Rate : 320k
Sample Encoding: MPEG audio (layer I, II or III)
Comments :
Title=Breentro
Artist=Breethoven
Album=Le Grind Guignol
Tracknumber=1
Year=2020
Genre=Death Metal/Grindcore



Register


Go to the top of the page
  Insert nick Quick quote
+Quote Post
 
Start new topic
Replies (1 - 2)
post Aug 1 2020, 18:17:55
Post #2

Group: Дух
Posts: 1
Releases: 0
On Forums: 3 years 10 months
Thanks: 0 time(s)
United States


Haha that's one of the best band names I've heard in a while
Go to the top of the page
  Insert nick Quick quote
+Quote Post
post Aug 1 2020, 19:21:33
Post #3

Маньяк
**********
Group: Металариец
Posts: 1,377
Releases: 234
On Forums: 11 years 8 months
Thanks: 4804 time(s)
Russian Federation


FLAC tracks
Register


Thanks:
(1) Olethros,
Go to the top of the page
  Insert nick Quick quote
+Quote Post

Reply to this topicStart new topic
1 User(s) are reading this topic (1 Guests and 0 Anonymous Users)
0 Members:

 



- Lo-Fi Version Support form
Copyrights and abuse reports form
Time is now: 11th August 2020 - 23:17:10