Welcome Guest ( Log In | Register )

> Releases Upload / Добавление релизов

Добавить релиз тут / Click here to add release
Рекомендованные обменники / Recommended file shares

> Ammanas - Obsession Cum Peccatum (2020), Black Metal
post Aug 1 2020, 17:27:53
Post #1

Правь статус, ####!111
**************
Group: Металариец
Posts: 22,674
Releases: 15764
From: Г.Харьков
On Forums: 8 years 3 months
Thanks: 290416 time(s)
Unknown


(IMG:https://metalarea.org/images/audiocovers/2020_Aug/acov_tid340323_thumb.jpg)

*Artist: Ammanas
*Album: Obsession Cum Peccatum
*Year: 2020
*Genre: Black Metal
*Country: Russian Federation (IMG:https://metalarea.org/forum/style_images/flags/Russian%20Federation.png)
*Format: mp3@CBR320kbps
*Size: 68MB

Tracklist:
1. Return to Death 03:49
2. Exaltation 05:28
3. Symphony of Decay 04:46
4. Empty Throne 04:33
5. The End of All Things 06:30
6. Faces of Death 04:58
******************************
Total playing time: 30:04




Extended info
Ammanas All instruments (2019-present)
See also: Agvares, Dor Feafaroth, ex-Gaktungar, ex-Лютень (live)
Ashmug Vocals (2019-present)
See also: ex-Raw Bastard
Vandal Vocals (2019-present)
See also: Agvares, Dor Feafaroth, ex-Gaktungar, ex-AntiGod Kult, ex-Xilentium
Samot Vocals (clean) (2019-present)
See also: Dor Feafaroth, ex-Gaktungar


Technical info
(IMG:https://metalarea.org/images/spectrogram/2020_Aug/b6b8c151408c3b29b7d07f44059d47dd.png)
Input File: 02 - Exaltation.mp3
Channels : 2
Sample Rate : 44100
Precision : 16-bit
Duration : 00:05:28.70 = 14495626 samples = 24652.4 CDDA sectors
File Size : 13.2M
Bit Rate : 320k
Sample Encoding: MPEG audio (layer I, II or III)
Comments :
Title=Exaltation
Artist=Ammanas
Album=Obsession cum Peccatum
Tracknumber=2
Year=2020
Genre=Black Metal



Register


Go to the top of the page
  Insert nick Quick quote
+Quote Post
 
Start new topic
Replies (1 - 1)
post Aug 5 2020, 14:12:37
Post #2

my church is black
*********
Group: Металариец
Posts: 978
Releases: 3
On Forums: 3 years 2 months
Thanks: 615 time(s)
Cape Verde


проходняк чёто.
Go to the top of the page
  Insert nick Quick quote
+Quote Post

Reply to this topicStart new topic
2 User(s) are reading this topic (2 Guests and 0 Anonymous Users)
0 Members:

 



- Lo-Fi Version Support form
Copyrights and abuse reports form
Time is now: 11th August 2020 - 22:43:51