Welcome Guest ( Log In | Register )

> Releases Upload / Добавление релизов

Добавить релиз тут / Click here to add release
Рекомендованные обменники / Recommended file shares

 
Reply to this topicStart new topic
> Imperious Vision - Empire Of Illution (2020), Technical Death Metal
post Aug 1 2020, 17:53:35
Post #1

Правь статус, ####!111
**************
Group: Металариец
Posts: 22,674
Releases: 15764
From: Г.Харьков
On Forums: 8 years 3 months
Thanks: 290427 time(s)
Unknown


(IMG:https://metalarea.org/images/audiocovers/2020_Aug/acov_tid340324_thumb.jpg)

*Artist: Imperious Vision
*Album: Empire Of Illution
*Year: 2020
*Genre: Technical Death Metal
*Country: South Africa (IMG:https://metalarea.org/forum/style_images/flags/South%20Africa.png)
*Format: mp3@CBR320kbps
*Size: 78MB

Tracklist:
01. Intro
02. Haros
03. Vociferous Digression
04. Genocide Suicide
05. Ignatius
06. Before the Dawn
07. Even the Best of Us Are Scum
08. Empire of Illusion
******************************
Total playing time: 32:25




Extended info


Technical info
(IMG:https://metalarea.org/images/spectrogram/2020_Aug/5e8ca438847cb85da398951f0f26eb6b.png)
Input File: 05 Ignatius.mp3
Channels : 2
Sample Rate : 44100
Precision : 16-bit
Duration : 00:04:15.47 = 11266007 samples = 19159.9 CDDA sectors
File Size : 10.7M
Bit Rate : 335k
Sample Encoding: MPEG audio (layer I, II or III)
Comments :
Title=Ignatius
Artist=Imperious Vision
Album=Empire of Illution
Tracknumber=5/8
Year=2020-20-20
Genre=Alternative
Discnumber=1/1



Register


Go to the top of the page
  Insert nick Quick quote
+Quote Post

Reply to this topicStart new topic
2 User(s) are reading this topic (2 Guests and 0 Anonymous Users)
0 Members:

 



- Lo-Fi Version Support form
Copyrights and abuse reports form
Time is now: 11th August 2020 - 23:35:48