Welcome Guest ( Log In | Register )

> Releases Upload / Добавление релизов

Добавить релиз тут / Click here to add release
Рекомендованные обменники / Recommended file shares

> Brutal Pestilência - Peste, Fome E Guerra (2020), Death/Thrash Metal
post Aug 1 2020, 19:11:13
Post #1

Правь статус, ####!111
**************
Group: Металариец
Posts: 22,674
Releases: 15764
From: Г.Харьков
On Forums: 8 years 3 months
Thanks: 290418 time(s)
Unknown


(IMG:https://metalarea.org/images/audiocovers/2020_Aug/acov_tid340325_thumb.jpg)

*Artist: Brutal Pestilência
*Album: Peste, Fome E Guerra
*Year: 2020
*Genre: Death/Thrash Metal
*Country: Brazil (IMG:https://metalarea.org/forum/style_images/flags/Brazil.png)
*Format: mp3@CBR320kbps
*Size: 102MB

Tracklist:
1. Preludio
2. Escoria da Nacao
3. Peste, Fome e Guerra
4. Assassino: Ato 2
5. Homem-Bomba
6. Tempos de Guerra
7. Vinganca
8. Campo de Batalha: Ato 1
9. Jeff The Killer
******************************
Total playing time: 43:23



Extended info
Adriano Blasphemous (Guitarra e vocal)
Heber Griffin (Guitarra e vocal)
Joanilson Neto (Baixo)
Paulo Braz (Bateria)


Technical info
(IMG:https://metalarea.org/images/spectrogram/2020_Aug/575aba411d38f1f6172d5884da6fb54f.png)
Input File: 05 - Homem-Bomba.mp3
Channels : 2
Sample Rate : 44100
Precision : 16-bit
Duration : 00:05:39.87 = 14988311 samples = 25490.3 CDDA sectors
File Size : 13.9M
Bit Rate : 327k
Sample Encoding: MPEG audio (layer I, II or III)
Comments :
Title=Homem-Bomba
Artist=Brutal Pestilência
Album=Peste, Fome e Guerra
Tracknumber=5
Year=2020



Register


Go to the top of the page
  Insert nick Quick quote
+Quote Post
 
Start new topic
Replies (1 - 1)
post Aug 2 2020, 04:29:39
Post #2

hearer & reader
**************
Group: Металариец
Posts: 8,869
Releases: 145
From: Moscow
On Forums: 12 years 11 months
Thanks: 9141 time(s)
Russian Federation


https://music.yandex.ru/album/11645664
Go to the top of the page
  Insert nick Quick quote
+Quote Post

Reply to this topicStart new topic
2 User(s) are reading this topic (2 Guests and 0 Anonymous Users)
0 Members:

 



- Lo-Fi Version Support form
Copyrights and abuse reports form
Time is now: 11th August 2020 - 22:50:24