Welcome Guest ( Log In | Register )

> Releases Upload / Добавление релизов

Добавить релиз тут / Click here to add release
Рекомендованные обменники / Recommended file shares

 
Reply to this topicStart new topic
> Vajra - Humano (2020), Heavy Metal
post Aug 1 2020, 19:41:16
Post #1

Правь статус, ####!111
**************
Group: Металариец
Posts: 22,674
Releases: 15764
From: Г.Харьков
On Forums: 8 years 3 months
Thanks: 290427 time(s)
Unknown


(IMG:https://metalarea.org/images/audiocovers/2020_Aug/acov_tid340326_thumb.jpg)

*Artist: Vajra
*Album: Humano
*Year: 2020
*Genre: Heavy Metal
*Country: Argentina (IMG:https://metalarea.org/forum/style_images/flags/Argentina.png)
*Format: mp3@CBR320kbps
*Size: 83MB

Tracklist:
1. Corriendo Libre (Tarahumara)
2. Ni un Paso Atras
3. Un Nuevo Horizonte
4. E (Inclusion)
5. El Viaje
6. Elevarse
7. Mi Decision
8. El Gigante
9. Un Nuevo Horizonte (Anticipo)
******************************
Total playing time: 35:23



Extended info



Technical info
(IMG:https://metalarea.org/images/spectrogram/2020_Aug/6e28155c87bcbe6504584939b1641d4d.png)
Input File: 06 - Elevarse.mp3
Channels : 2
Sample Rate : 44100
Precision : 16-bit
Duration : 00:04:04.42 = 10778702 samples = 18331.1 CDDA sectors
File Size : 9.96M
Bit Rate : 326k
Sample Encoding: MPEG audio (layer I, II or III)
Comments :
Title=Elevarse
Artist=Vajra
Album=Humano
Tracknumber=6
Year=2020



Register


Go to the top of the page
  Insert nick Quick quote
+Quote Post

Reply to this topicStart new topic
2 User(s) are reading this topic (2 Guests and 0 Anonymous Users)
0 Members:

 



- Lo-Fi Version Support form
Copyrights and abuse reports form
Time is now: 11th August 2020 - 23:46:54