Welcome Guest ( Log In | Register )

> Releases Upload / Добавление релизов

Добавить релиз тут / Click here to add release
Рекомендованные обменники / Recommended file shares

> Dark Wizardry - Burden Of Salvation (2020), Symphonic Extreme/Experimental Metal
post Aug 1 2020, 20:35:23
Post #1

Маньяк
**********
Group: Металариец
Posts: 1,377
Releases: 234
On Forums: 11 years 8 months
Thanks: 4804 time(s)
Russian Federation


(IMG:http://metalarea.org/images/audiocovers/2020_Aug/acov_tid340327_thumb.jpg)

*Artist: Dark Wizardry
*Album: Burden Of Salvation
*Year: 2020
*Genre: Symphonic Extreme/Experimental Metal
*Country: United States (IMG:http://metalarea.org/forum/style_images/flags/United%20States.png)
*Format: mp3@CBR320kbps
*Size: 165MB

Tracklist:
01. Ouverture 07:11
02. To Victory I 05:45
03. To Victory II 06:33
04. Todeskampf 02:01
05. Mantel Des Vergessens 04:30
06. Unterwelt 06:14
07. The Awakening 06:55
08. Stronger Than Before 04:45
09. Alive 05:21
10. Showdown 07:36
11. Thy Fate 06:45
12. Departure 08:19
******************************
Total playing time: 1:11:55

Extended info




Daniel Klis - everything


Technical info
(IMG:http://metalarea.org/images/spectrogram/2020_Aug/c501932c1760e9d99e514c1a68ba8727.png)
Input File: 01-Ouverture.mp3
Channels : 2
Sample Rate : 44100
Precision : 16-bit
Duration : 00:07:10.84 = 18999956 samples = 32312.9 CDDA sectors
File Size : 17.2M
Bit Rate : 320k
Sample Encoding: MPEG audio (layer I, II or III)
Comments :
Title=Ouverture
Artist=Dark Wizardry
Album=Burden Of Salvation
Tracknumber=01
Year=2020
Genre=Symphonic Extreme Metal



Register


Go to the top of the page
  Insert nick Quick quote
+Quote Post
 
Start new topic
Replies (1 - 1)
post Aug 2 2020, 04:14:12
Post #2

Правь статус, ####!111
**************
Group: Металариец
Posts: 3,106
Releases: 9
From: Dnipro
On Forums: 12 years 4 weeks
Thanks: 1054 time(s)
Ukraine


на вкус как среднего пошиба MDM (IMG:style_emoticons/default/dooo.gif)
Go to the top of the page
  Insert nick Quick quote
+Quote Post

Reply to this topicStart new topic
1 User(s) are reading this topic (1 Guests and 0 Anonymous Users)
0 Members:

 



- Lo-Fi Version Support form
Copyrights and abuse reports form
Time is now: 11th August 2020 - 22:08:24