Welcome Guest ( Log In | Register )

> Releases Upload / Добавление релизов

Добавить релиз тут / Click here to add release
Рекомендованные обменники / Recommended file shares

> Hor Zapor - Beer Best! (2020), Folk Metal
post Aug 1 2020, 22:34:17
Post #1

Правь статус, ####!111
**************
Group: Металариец
Posts: 22,674
Releases: 15764
From: Г.Харьков
On Forums: 8 years 3 months
Thanks: 290427 time(s)
Unknown


(IMG:https://metalarea.org/images/audiocovers/2020_Aug/acov_tid340329_thumb.jpg)

*Artist: Hor Zapor
*Album: Beer Best!
*Year: 2020
*Genre: Folk Metal
*Country: Russian Federation (IMG:https://metalarea.org/forum/style_images/flags/Russian%20Federation.png)
*Format: mp3@CBR320kbps
*Size: 80MB

Tracklist:
01. Интро (AK-47 cover) 01:07
02. Играл из-за гор (Glittertind cover) 02:27
03. 3 литра пива 02:04
04. Делирий 03:17
05. Это новый Хор Запор (Trollfest cover) 01:49
06. Люблю бухать на корабле (Re-issue 2005) 02:07
07. Казачок (Re-issue 2005) 02:25
08. Железный кулак (Die Apokalyptischen Reiter cover) 02:33
09. Водка (Korpiklaani cover) 02:57
10. Витольд (Unrelease song from 2015) 04:49
11. Пусто в кружке (Tankard cover) 05:56
12. Аутро (Trollfest cover) 03:36
******************************
Total playing time: 35:07

Preview 1

Extended info
Igor Ovchinnikov Accordion
Andrey Nikiforov Bass
Alexey Chalyk Drums
See also: The Prophet, Cemeterial
Mikhail Baranov Guitars
See also: Cemeterial, ex-The Prophet, ex-Vomitous Mass
Vasiliy Guliy Guitars, Vocals
See also: Lutowrat, Cemeterial, ex-The Prophet


Technical info
(IMG:https://metalarea.org/images/spectrogram/2020_Aug/c1df29dcf708c57d52707d47095731a6.png)
Input File: 10 - Витольд.mp3
Channels : 2
Sample Rate : 44100
Precision : 16-bit
Duration : 00:04:49.74 = 12777446 samples = 21730.4 CDDA sectors
File Size : 11.6M
Bit Rate : 320k
Sample Encoding: MPEG audio (layer I, II or III)
Comments :
Title=Âèòîëüä
Artist=Hor Zapor
Album=Beer Best!
Tracknumber=10
Year=2020
Genre=Metal



Register


Go to the top of the page
  Insert nick Quick quote
+Quote Post
 
Start new topic
Replies (1 - 2)
post Aug 2 2020, 16:51:58
Post #2

Шесть Литров
******
Group: Металариец
Posts: 568
Releases: 26
On Forums: 11 years 2 months
Thanks: 562 time(s)
Chile


Thanks (IMG:style_emoticons/default/dwarf-1.gif)


Thanks:
Go to the top of the page
  Insert nick Quick quote
+Quote Post
post Aug 2 2020, 18:28:07
Post #3

Два Литра
**
Group: Завсегдатай
Posts: 140
Releases: 1
On Forums: 13 years 10 months
Thanks: 75 time(s)
Russian Federation


Go to the top of the page
  Insert nick Quick quote
+Quote Post

Reply to this topicStart new topic
2 User(s) are reading this topic (2 Guests and 0 Anonymous Users)
0 Members:

 



- Lo-Fi Version Support form
Copyrights and abuse reports form
Time is now: 11th August 2020 - 23:06:39