Welcome Guest ( Log In | Register )

> Releases Upload / Добавление релизов

Добавить релиз тут / Click here to add release
Рекомендованные обменники / Recommended file shares

> Melissa - My Empire Has No Limits (2020), Thrash/Groove Metal (D)
post Aug 2 2020, 01:58:09
Post #1

Правь статус, ####!111
**************
Group: Металариец
Posts: 22,674
Releases: 15764
From: Г.Харьков
On Forums: 8 years 3 months
Thanks: 290417 time(s)
Unknown


(IMG:https://metalarea.org/images/audiocovers/2020_Aug/acov_tid340330_thumb.jpg)

*Artist: Melissa
*Album: My Empire Has No Limits
*Year: 2020
*Genre: Thrash/Groove Metal
*Country: Serbia (IMG:https://metalarea.org/forum/style_images/flags/Serbia.png)
*Format: mp3@CBR320kbps
*Size: 81MB

Tracklist:
1. My Life No Surrender
2. Darkness of Love
3. My Empire Has No Limits
4. Light Work (Pozudno i nezno)
5. No Escape
6. Forgotten Love
7. Madness In My Head
8. Oci govore
******************************
Total playing time: 34:00



Extended info
Dejan Stojanović DEKSTER - Ritam gitara i vokal
Miljkovic Ivan IFTA - Bubnjevi
Ilija Milosavljević - Solo gitara
Boro Radoja - Bas gitara




Technical info
(IMG:https://metalarea.org/images/spectrogram/2020_Aug/d00ad00d071eb93ac578813307b73f39.png)
Input File: 06 Forgotten Love.mp3
Channels : 2
Sample Rate : 44100
Precision : 16-bit
Duration : 00:06:55.94 = 18343130 samples = 31195.8 CDDA sectors
File Size : 17.0M
Bit Rate : 327k
Sample Encoding: MPEG audio (layer I, II or III)
Comments :
Title=Forgotten Love
Artist=Mélissa
Album=My Empire Has No Limits
Tracknumber=6/8
Year=2020-20-20
Genre=Rock
Discnumber=1/1



Register


Go to the top of the page
  Insert nick Quick quote
+Quote Post
 
Start new topic
Replies (1 - 1)
post Aug 5 2020, 17:43:38
Post #2

Два Литра
**
Group: Завсегдатай
Posts: 154
Releases: 0
From: минск сити
On Forums: 11 years 1 month
Thanks: 37 time(s)
Belarus


Эх.. это сербы, а я уж было подумал новое что-то от этих российских товарищей.
Go to the top of the page
  Insert nick Quick quote
+Quote Post

Reply to this topicStart new topic
1 User(s) are reading this topic (1 Guests and 0 Anonymous Users)
0 Members:

 



- Lo-Fi Version Support form
Copyrights and abuse reports form
Time is now: 11th August 2020 - 22:45:27