Welcome Guest ( Log In | Register )

> Releases Upload / Добавление релизов

Добавить релиз тут / Click here to add release
Рекомендованные обменники / Recommended file shares

> Unruly - Unruly (2020), Sludge/Doom Metal
post Aug 2 2020, 02:12:33
Post #1

Правь статус, ####!111
**************
Group: Металариец
Posts: 22,674
Releases: 15764
From: Г.Харьков
On Forums: 8 years 3 months
Thanks: 290418 time(s)
Unknown


(IMG:https://metalarea.org/images/audiocovers/2020_Aug/acov_tid340331_thumb.jpg)

*Artist: Unruly
*Album: Unruly
*Year: 2020
*Genre: Sludge/Doom Metal
*Country: New Zealand (IMG:https://metalarea.org/forum/style_images/flags/New%20Zealand.png)
*Format: mp3@CBR320kbps
*Size: 109MB

Tracklist:
1. Floorboards 04:57
2. Bleach Jesus 03:54
3. Absence 04:28
4. Problem 05:09
5. Stare into the Fire 05:17
6. Unruly Family 04:14
7. Catfish Hemorrhoid 04:46
8. Primordial Hash 05:47
9. Blood of Satan 08:30
******************************
Total playing time: 47:02



Extended info
S.L.D. Bass
T.R.A.P. Drums, Vocals
See also: Invertebrate, ex-Meth Drinker, ex-Baboon King, ex-Drug Problem, ex-Malparido, ex-Scab
V.V. Guitars, Vocals


Technical info
(IMG:https://metalarea.org/images/spectrogram/2020_Aug/179fbdf056c63975df1199f9f3ac1602.png)
Input File: 04 - Problem.mp3
Channels : 2
Sample Rate : 44100
Precision : 16-bit
Duration : 00:05:09.59 = 13653095 samples = 23219.5 CDDA sectors
File Size : 12.6M
Bit Rate : 326k
Sample Encoding: MPEG audio (layer I, II or III)
Comments :
Title=Problem
Artist=Unruly
Album=Unruly
Tracknumber=4
Year=2020



Register


Go to the top of the page
  Insert nick Quick quote
+Quote Post
 
Start new topic
Replies (1 - 1)
post Aug 2 2020, 12:31:57
Post #2

Правь статус, ####!111
**************
Group: Металариец
Posts: 47,045
Releases: 732
On Forums: 11 years 2 months
Thanks: 39704 time(s)
Russian Federation


Вценил превью - мелодически приятный стафф с вокалом, не вызывающим отторжения.

Ничего нового конечно, но в сим жанре оно и не надобно.

Буду подробнее чекать.


Thanks:
Go to the top of the page
  Insert nick Quick quote
+Quote Post

Reply to this topicStart new topic
2 User(s) are reading this topic (2 Guests and 0 Anonymous Users)
0 Members:

 



- Lo-Fi Version Support form
Copyrights and abuse reports form
Time is now: 11th August 2020 - 22:49:09